<?xml version="1.0" standalone="no"?>
<!DOCTYPE svg PUBLIC "-//W3C//DTD SVG 1.1//EN" "http://www.w3.org/Graphics/SVG/1.1/DTD/svg11.dtd" >
<svg>
<metadata>
Created by FontForge 20110222 at Tue Jan 20 09:43:08 2015
 By www-data
Copyright (c) 2011 by Glenjan. All rights reserved.
</metadata>
<defs>
<font id="RoadRadio-Black" horiz-adv-x="707" >
  <font-face 
    font-family="RoadRadio"
    font-weight="900"
    font-stretch="normal"
    units-per-em="1000"
    panose-1="0 0 0 0 0 0 0 0 0 0"
    ascent="750"
    descent="-250"
    x-height="553"
    cap-height="553"
    bbox="-76 -286 1122 847"
    underline-thickness="50"
    underline-position="-50"
    unicode-range="U+0020-2212"
  />
<missing-glyph horiz-adv-x="329" 
d="M195 553q44 0 72.5 -26.5t28.5 -69.5q0 -28 -12.5 -49.5t-34.5 -32.5l37 -68h-59l-30 56h-91v-56h-56v246h145zM106 413h87q21 0 34 11t13 33q0 21 -13 33.5t-34 12.5h-87v-90zM195 246q44 0 72.5 -26.5t28.5 -69.5q0 -28 -12.5 -49.5t-34.5 -32.5l37 -68h-59l-30 56h-91
v-56h-56v246h145zM106 106h87q21 0 34 11t13 33q0 21 -13 33.5t-34 12.5h-87v-90z" />
    <glyph glyph-name=".notdef" horiz-adv-x="329" 
d="M195 553q44 0 72.5 -26.5t28.5 -69.5q0 -28 -12.5 -49.5t-34.5 -32.5l37 -68h-59l-30 56h-91v-56h-56v246h145zM106 413h87q21 0 34 11t13 33q0 21 -13 33.5t-34 12.5h-87v-90zM195 246q44 0 72.5 -26.5t28.5 -69.5q0 -28 -12.5 -49.5t-34.5 -32.5l37 -68h-59l-30 56h-91
v-56h-56v246h145zM106 106h87q21 0 34 11t13 33q0 21 -13 33.5t-34 12.5h-87v-90z" />
    <glyph glyph-name="H" unicode="H" horiz-adv-x="659" 
d="M194 553v-202h271v202h148v-553h-148v219h-271v-219h-147v553h147z" />
    <glyph glyph-name="A" unicode="A" horiz-adv-x="743" 
d="M273 209h195l-84 213h-23zM481 553l235 -553h-156l-35 81h-306l-34 -81h-158l240 553h214z" />
    <glyph glyph-name="space" unicode=" " horiz-adv-x="273" 
 />
    <glyph glyph-name="B" unicode="B" horiz-adv-x="648" 
d="M406 553q37 0 69 -11t55 -31t36 -48t13 -63q0 -26 -9.5 -49.5t-29.5 -37.5q36 -21 56 -53.5t20 -85.5q0 -36 -14 -68t-38.5 -55.5t-57.5 -37t-71 -13.5h-388v553h359zM194 347h211q11 0 20.5 11.5t9.5 25.5q0 11 -7.5 24t-27.5 13h-206v-74zM194 133h237q17 0 29 11
t12 31q0 19 -12.5 31.5t-32.5 12.5h-233v-86z" />
    <glyph glyph-name="C" unicode="C" horiz-adv-x="675" 
d="M523 344q-31 45 -70.5 68.5t-103.5 23.5q-74 0 -118.5 -43t-44.5 -117q0 -36 12 -65.5t33.5 -50.5t51.5 -32.5t66 -11.5q63 0 103.5 23t69.5 68l114 -64q-42 -79 -113.5 -118t-171.5 -39q-67 0 -124 20t-98.5 57.5t-65 91.5t-23.5 121t24 120.5t66 91t98.5 58t122.5 20.5
q200 0 286 -157z" />
    <glyph glyph-name="c" unicode="c" horiz-adv-x="675" 
d="M523 344q-31 45 -70.5 68.5t-103.5 23.5q-74 0 -118.5 -43t-44.5 -117q0 -36 12 -65.5t33.5 -50.5t51.5 -32.5t66 -11.5q63 0 103.5 23t69.5 68l114 -64q-42 -79 -113.5 -118t-171.5 -39q-67 0 -124 20t-98.5 57.5t-65 91.5t-23.5 121t24 120.5t66 91t98.5 58t122.5 20.5
q200 0 286 -157z" />
    <glyph glyph-name="afii10035" unicode="&#x421;" horiz-adv-x="675" 
d="M523 344q-31 45 -70.5 68.5t-103.5 23.5q-74 0 -118.5 -43t-44.5 -117q0 -36 12 -65.5t33.5 -50.5t51.5 -32.5t66 -11.5q63 0 103.5 23t69.5 68l114 -64q-42 -79 -113.5 -118t-171.5 -39q-67 0 -124 20t-98.5 57.5t-65 91.5t-23.5 121t24 120.5t66 91t98.5 58t122.5 20.5
q200 0 286 -157z" />
    <glyph glyph-name="afii10083" unicode="&#x441;" horiz-adv-x="675" 
d="M523 344q-31 45 -70.5 68.5t-103.5 23.5q-74 0 -118.5 -43t-44.5 -117q0 -36 12 -65.5t33.5 -50.5t51.5 -32.5t66 -11.5q63 0 103.5 23t69.5 68l114 -64q-42 -79 -113.5 -118t-171.5 -39q-67 0 -124 20t-98.5 57.5t-65 91.5t-23.5 121t24 120.5t66 91t98.5 58t122.5 20.5
q200 0 286 -157z" />
    <glyph glyph-name="D" unicode="D" horiz-adv-x="676" 
d="M338 553q55 0 108.5 -20t95.5 -56.5t68 -87.5t26 -112t-25.5 -112t-67.5 -87.5t-95.5 -57t-109.5 -20.5h-291v553h291zM194 135h146q31 0 58 11t47.5 30t32 45t11.5 56t-11.5 56t-32 45.5t-47.5 30.5t-58 11h-146v-285z" />
    <glyph glyph-name="a" unicode="a" horiz-adv-x="743" 
d="M273 209h195l-84 213h-23zM481 553l235 -553h-156l-35 81h-306l-34 -81h-158l240 553h214z" />
    <glyph glyph-name="afii10017" unicode="&#x410;" horiz-adv-x="743" 
d="M273 209h195l-84 213h-23zM481 553l235 -553h-156l-35 81h-306l-34 -81h-158l240 553h214z" />
    <glyph glyph-name="afii10065" unicode="&#x430;" horiz-adv-x="743" 
d="M273 209h195l-84 213h-23zM481 553l235 -553h-156l-35 81h-306l-34 -81h-158l240 553h214z" />
    <glyph glyph-name="E" unicode="E" horiz-adv-x="610" 
d="M556 553v-133h-362v-73h325v-133h-325v-78h375v-136h-522v553h509z" />
    <glyph glyph-name="h" unicode="h" horiz-adv-x="659" 
d="M194 553v-202h271v202h148v-553h-148v219h-271v-219h-147v553h147z" />
    <glyph glyph-name="afii10031" unicode="&#x41d;" horiz-adv-x="659" 
d="M194 553v-202h271v202h148v-553h-148v219h-271v-219h-147v553h147z" />
    <glyph glyph-name="afii10079" unicode="&#x43d;" horiz-adv-x="659" 
d="M194 553v-202h271v202h148v-553h-148v219h-271v-219h-147v553h147z" />
    <glyph glyph-name="F" unicode="F" horiz-adv-x="590" 
d="M47 553h515v-133h-368v-85h324v-133h-324v-202h-147v553z" />
    <glyph glyph-name="G" unicode="G" horiz-adv-x="695" 
d="M641 328v-328h-91l-18 35q-40 -24 -82.5 -36.5t-99.5 -12.5q-65 0 -121.5 20t-98.5 57.5t-66 91.5t-24 121t24 120.5t66 91t98.5 58t121.5 20.5q99 0 167 -36t117 -111l-117 -66q-16 21 -32 36t-35 24.5t-43.5 14t-57.5 4.5q-75 0 -119 -41t-44 -115q0 -75 43.5 -115.5
t119.5 -40.5q26 0 46.5 2t38.5 6.5t33.5 11t31.5 16.5v45l-136 5v122h278z" />
    <glyph glyph-name="g" unicode="g" horiz-adv-x="695" 
d="M641 328v-328h-91l-18 35q-40 -24 -82.5 -36.5t-99.5 -12.5q-65 0 -121.5 20t-98.5 57.5t-66 91.5t-24 121t24 120.5t66 91t98.5 58t121.5 20.5q99 0 167 -36t117 -111l-117 -66q-16 21 -32 36t-35 24.5t-43.5 14t-57.5 4.5q-75 0 -119 -41t-44 -115q0 -75 43.5 -115.5
t119.5 -40.5q26 0 46.5 2t38.5 6.5t33.5 11t31.5 16.5v45l-136 5v122h278z" />
    <glyph glyph-name="I" unicode="I" horiz-adv-x="241" 
d="M194 553v-553h-147v553h147z" />
    <glyph glyph-name="i" unicode="i" horiz-adv-x="241" 
d="M194 553v-553h-147v553h147z" />
    <glyph glyph-name="J" unicode="J" horiz-adv-x="597" 
d="M551 553v-306q0 -52 -17 -99.5t-51.5 -83.5t-86.5 -57t-123 -21q-92 0 -159 44t-99 122l127 60q14 -44 50.5 -69.5t81.5 -25.5q37 0 62.5 10.5t41 29t22.5 44t7 56.5v296h144z" />
    <glyph glyph-name="j" unicode="j" horiz-adv-x="597" 
d="M551 553v-306q0 -52 -17 -99.5t-51.5 -83.5t-86.5 -57t-123 -21q-92 0 -159 44t-99 122l127 60q14 -44 50.5 -69.5t81.5 -25.5q37 0 62.5 10.5t41 29t22.5 44t7 56.5v296h144z" />
    <glyph glyph-name="K" unicode="K" horiz-adv-x="661" 
d="M193 553v-195h130l133 195h170l-178 -256l190 -297h-175l-136 223h-134v-223h-146v553h146z" />
    <glyph glyph-name="L" unicode="L" horiz-adv-x="585" 
d="M194 553v-420h365v-133h-512v553h147z" />
    <glyph glyph-name="M" unicode="M" horiz-adv-x="820" 
d="M234 553l172 -369h4l186 369h177v-553h-147v348l-161 -348h-118l-158 348v-348h-143v553h188z" />
    <glyph glyph-name="l" unicode="l" horiz-adv-x="585" 
d="M194 553v-420h365v-133h-512v553h147z" />
    <glyph glyph-name="k" unicode="k" horiz-adv-x="661" 
d="M193 553v-195h130l133 195h170l-178 -256l190 -297h-175l-136 223h-134v-223h-146v553h146z" />
    <glyph glyph-name="m" unicode="m" horiz-adv-x="820" 
d="M234 553l172 -369h4l186 369h177v-553h-147v348l-161 -348h-118l-158 348v-348h-143v553h188z" />
    <glyph glyph-name="afii10030" unicode="&#x41c;" horiz-adv-x="820" 
d="M234 553l172 -369h4l186 369h177v-553h-147v348l-161 -348h-118l-158 348v-348h-143v553h188z" />
    <glyph glyph-name="afii10078" unicode="&#x43c;" horiz-adv-x="820" 
d="M234 553l172 -369h4l186 369h177v-553h-147v348l-161 -348h-118l-158 348v-348h-143v553h188z" />
    <glyph glyph-name="afii10076" unicode="&#x43a;" horiz-adv-x="661" 
d="M193 553v-195h130l133 195h170l-178 -256l190 -297h-175l-136 223h-134v-223h-146v553h146z" />
    <glyph glyph-name="afii10028" unicode="&#x41a;" horiz-adv-x="661" 
d="M193 553v-195h130l133 195h170l-178 -256l190 -297h-175l-136 223h-134v-223h-146v553h146z" />
    <glyph glyph-name="f" unicode="f" horiz-adv-x="590" 
d="M47 553h515v-133h-368v-85h324v-133h-324v-202h-147v553z" />
    <glyph glyph-name="afii10022" unicode="&#x415;" horiz-adv-x="610" 
d="M556 553v-133h-362v-73h325v-133h-325v-78h375v-136h-522v553h509z" />
    <glyph glyph-name="afii10070" unicode="&#x435;" horiz-adv-x="610" 
d="M556 553v-133h-362v-73h325v-133h-325v-78h375v-136h-522v553h509z" />
    <glyph glyph-name="d" unicode="d" horiz-adv-x="676" 
d="M338 553q55 0 108.5 -20t95.5 -56.5t68 -87.5t26 -112t-25.5 -112t-67.5 -87.5t-95.5 -57t-109.5 -20.5h-291v553h291zM194 135h146q31 0 58 11t47.5 30t32 45t11.5 56t-11.5 56t-32 45.5t-47.5 30.5t-58 11h-146v-285z" />
    <glyph glyph-name="b" unicode="b" horiz-adv-x="648" 
d="M406 553q37 0 69 -11t55 -31t36 -48t13 -63q0 -26 -9.5 -49.5t-29.5 -37.5q36 -21 56 -53.5t20 -85.5q0 -36 -14 -68t-38.5 -55.5t-57.5 -37t-71 -13.5h-388v553h359zM194 347h211q11 0 20.5 11.5t9.5 25.5q0 11 -7.5 24t-27.5 13h-206v-74zM194 133h237q17 0 29 11
t12 31q0 19 -12.5 31.5t-32.5 12.5h-233v-86z" />
    <glyph glyph-name="afii10019" unicode="&#x412;" horiz-adv-x="648" 
d="M406 553q37 0 69 -11t55 -31t36 -48t13 -63q0 -26 -9.5 -49.5t-29.5 -37.5q36 -21 56 -53.5t20 -85.5q0 -36 -14 -68t-38.5 -55.5t-57.5 -37t-71 -13.5h-388v553h359zM194 347h211q11 0 20.5 11.5t9.5 25.5q0 11 -7.5 24t-27.5 13h-206v-74zM194 133h237q17 0 29 11
t12 31q0 19 -12.5 31.5t-32.5 12.5h-233v-86z" />
    <glyph glyph-name="afii10067" unicode="&#x432;" horiz-adv-x="648" 
d="M406 553q37 0 69 -11t55 -31t36 -48t13 -63q0 -26 -9.5 -49.5t-29.5 -37.5q36 -21 56 -53.5t20 -85.5q0 -36 -14 -68t-38.5 -55.5t-57.5 -37t-71 -13.5h-388v553h359zM194 347h211q11 0 20.5 11.5t9.5 25.5q0 11 -7.5 24t-27.5 13h-206v-74zM194 133h237q17 0 29 11
t12 31q0 19 -12.5 31.5t-32.5 12.5h-233v-86z" />
    <glyph glyph-name="N" unicode="N" horiz-adv-x="670" 
d="M181 553l296 -334v334h146v-553h-135l-296 334v-334h-145v553h134z" />
    <glyph glyph-name="n" unicode="n" horiz-adv-x="670" 
d="M181 553l296 -334v334h146v-553h-135l-296 334v-334h-145v553h134z" />
    <glyph glyph-name="O" unicode="O" 
d="M190 276q0 -38 12.5 -68.5t35 -52t52 -33t64.5 -11.5q34 0 64 11.5t52 33t34.5 52t12.5 68.5t-12.5 68.5t-34.5 52t-52 33t-64 11.5q-35 0 -64.5 -11.5t-52 -33t-35 -52t-12.5 -68.5zM665 276q0 -65 -25.5 -118.5t-68 -91.5t-99 -59t-118.5 -21t-118.5 21t-99 59
t-68 91.5t-25.5 118.5t25.5 118.5t68 91.5t99 59t118.5 21t118.5 -21t99 -59t68 -91.5t25.5 -118.5z" />
    <glyph glyph-name="o" unicode="o" 
d="M190 276q0 -38 12.5 -68.5t35 -52t52 -33t64.5 -11.5q34 0 64 11.5t52 33t34.5 52t12.5 68.5t-12.5 68.5t-34.5 52t-52 33t-64 11.5q-35 0 -64.5 -11.5t-52 -33t-35 -52t-12.5 -68.5zM665 276q0 -65 -25.5 -118.5t-68 -91.5t-99 -59t-118.5 -21t-118.5 21t-99 59
t-68 91.5t-25.5 118.5t25.5 118.5t68 91.5t99 59t118.5 21t118.5 -21t99 -59t68 -91.5t25.5 -118.5z" />
    <glyph glyph-name="afii10032" unicode="&#x41e;" 
d="M190 276q0 -38 12.5 -68.5t35 -52t52 -33t64.5 -11.5q34 0 64 11.5t52 33t34.5 52t12.5 68.5t-12.5 68.5t-34.5 52t-52 33t-64 11.5q-35 0 -64.5 -11.5t-52 -33t-35 -52t-12.5 -68.5zM665 276q0 -65 -25.5 -118.5t-68 -91.5t-99 -59t-118.5 -21t-118.5 21t-99 59
t-68 91.5t-25.5 118.5t25.5 118.5t68 91.5t99 59t118.5 21t118.5 -21t99 -59t68 -91.5t25.5 -118.5z" />
    <glyph glyph-name="afii10080" unicode="&#x43e;" 
d="M190 276q0 -38 12.5 -68.5t35 -52t52 -33t64.5 -11.5q34 0 64 11.5t52 33t34.5 52t12.5 68.5t-12.5 68.5t-34.5 52t-52 33t-64 11.5q-35 0 -64.5 -11.5t-52 -33t-35 -52t-12.5 -68.5zM665 276q0 -65 -25.5 -118.5t-68 -91.5t-99 -59t-118.5 -21t-118.5 21t-99 59
t-68 91.5t-25.5 118.5t25.5 118.5t68 91.5t99 59t118.5 21t118.5 -21t99 -59t68 -91.5t25.5 -118.5z" />
    <glyph glyph-name="zero" unicode="0" horiz-adv-x="681" 
d="M180 276q0 -76 37 -120.5t123 -44.5t123.5 44.5t37.5 120.5t-37.5 120.5t-123.5 44.5t-123 -44.5t-37 -120.5zM647 276q0 -71 -24 -125t-66 -90.5t-98 -55.5t-119 -19t-119 19t-97.5 55.5t-66 90.5t-24.5 125q0 70 24.5 124.5t66 91t97.5 55.5t119 19t119 -19t98 -55.5
t66 -91t24 -124.5z" />
    <glyph glyph-name="P" unicode="P" horiz-adv-x="640" 
d="M374 553q50 0 92.5 -16t73 -45t48 -69.5t17.5 -89.5t-17.5 -89t-48 -68t-73 -43t-92.5 -15h-180v-118h-147v553h327zM194 252h174q39 0 64 20t25 61q0 40 -25 63t-64 23h-174v-167z" />
    <glyph glyph-name="p" unicode="p" horiz-adv-x="635" 
d="M374 553q50 0 92.5 -16t73 -45t48 -69.5t17.5 -89.5t-17.5 -89t-48 -68t-73 -43t-92.5 -15h-180v-118h-147v553h327zM194 252h174q39 0 64 20t25 61q0 40 -25 63t-64 23h-174v-167z" />
    <glyph glyph-name="afii10034" unicode="&#x420;" horiz-adv-x="635" 
d="M374 553q50 0 92.5 -16t73 -45t48 -69.5t17.5 -89.5t-17.5 -89t-48 -68t-73 -43t-92.5 -15h-180v-118h-147v553h327zM194 252h174q39 0 64 20t25 61q0 40 -25 63t-64 23h-174v-167z" />
    <glyph glyph-name="afii10082" unicode="&#x440;" horiz-adv-x="640" 
d="M374 553q50 0 92.5 -16t73 -45t48 -69.5t17.5 -89.5t-17.5 -89t-48 -68t-73 -43t-92.5 -15h-180v-118h-147v553h327zM194 252h174q39 0 64 20t25 61q0 40 -25 63t-64 23h-174v-167z" />
    <glyph glyph-name="Q" unicode="Q" 
d="M553 -48l-62 60q-64 -26 -137 -26q-62 0 -118.5 21t-99 59t-68 91.5t-25.5 118.5t25.5 118.5t68 91.5t99 59t118.5 21t118.5 -21t99 -59t68 -91.5t25.5 -118.5q0 -53 -17 -98.5t-47 -80.5l49 -48zM501 197q16 37 16 79q0 38 -12.5 68.5t-34.5 52t-52 33t-64 11.5
q-35 0 -64.5 -11.5t-52 -33t-35 -52t-12.5 -68.5t12.5 -68.5t35 -52t52 -33t64.5 -11.5h19.5t20.5 -1l-47 48l96 98z" />
    <glyph glyph-name="q" unicode="q" 
d="M553 -48l-62 60q-64 -26 -137 -26q-62 0 -118.5 21t-99 59t-68 91.5t-25.5 118.5t25.5 118.5t68 91.5t99 59t118.5 21t118.5 -21t99 -59t68 -91.5t25.5 -118.5q0 -53 -17 -98.5t-47 -80.5l49 -48zM501 197q16 37 16 79q0 38 -12.5 68.5t-34.5 52t-52 33t-64 11.5
q-35 0 -64.5 -11.5t-52 -33t-35 -52t-12.5 -68.5t12.5 -68.5t35 -52t52 -33t64.5 -11.5h19.5t20.5 -1l-47 48l96 98z" />
    <glyph glyph-name="R" unicode="R" horiz-adv-x="634" 
d="M374 553q50 0 92.5 -16t73 -45t48 -69.5t17.5 -89.5q0 -62 -26.5 -108t-73.5 -74l84 -151h-160l-63 118h-172v-118h-147v553h327zM194 252h174q39 0 64 20t25 61q0 40 -25 63t-64 23h-174v-167z" />
    <glyph glyph-name="r" unicode="r" horiz-adv-x="633" 
d="M374 553q50 0 92.5 -16t73 -45t48 -69.5t17.5 -89.5q0 -62 -26.5 -108t-73.5 -74l84 -151h-160l-63 118h-172v-118h-147v553h327zM194 252h174q39 0 64 20t25 61q0 40 -25 63t-64 23h-174v-167z" />
    <glyph glyph-name="S" unicode="S" horiz-adv-x="660" 
d="M538 370q-48 35 -100 50t-117 15q-35 0 -57.5 -3.5t-35.5 -10t-17.5 -14.5t-4.5 -17q0 -17 16 -22.5t41 -8.5l161 -18q91 -11 144 -51t53 -120q0 -48 -22.5 -82.5t-61.5 -57t-92.5 -33.5t-115.5 -11q-86 0 -155 21t-137 73l69 114q57 -40 114.5 -60t121.5 -20
q57 0 96.5 13t39.5 41q0 14 -7 22t-33 10l-190 22q-88 10 -137.5 48.5t-49.5 118.5q0 45 20.5 78.5t56 55.5t82.5 32.5t101 10.5q80 0 151 -18.5t137 -69.5z" />
    <glyph glyph-name="s" unicode="s" horiz-adv-x="660" 
d="M538 370q-48 35 -100 50t-117 15q-35 0 -57.5 -3.5t-35.5 -10t-17.5 -14.5t-4.5 -17q0 -17 16 -22.5t41 -8.5l161 -18q91 -11 144 -51t53 -120q0 -48 -22.5 -82.5t-61.5 -57t-92.5 -33.5t-115.5 -11q-86 0 -155 21t-137 73l69 114q57 -40 114.5 -60t121.5 -20
q57 0 96.5 13t39.5 41q0 14 -7 22t-33 10l-190 22q-88 10 -137.5 48.5t-49.5 118.5q0 45 20.5 78.5t56 55.5t82.5 32.5t101 10.5q80 0 151 -18.5t137 -69.5z" />
    <glyph glyph-name="T" unicode="T" horiz-adv-x="638" 
d="M608 553v-132h-215v-421h-148v421h-215v132h578z" />
    <glyph glyph-name="t" unicode="t" horiz-adv-x="638" 
d="M608 553v-132h-215v-421h-148v421h-215v132h578z" />
    <glyph glyph-name="afii10036" unicode="&#x422;" horiz-adv-x="638" 
d="M608 553v-132h-215v-421h-148v421h-215v132h578z" />
    <glyph glyph-name="afii10084" unicode="&#x442;" horiz-adv-x="638" 
d="M608 553v-132h-215v-421h-148v421h-215v132h578z" />
    <glyph glyph-name="U" unicode="U" horiz-adv-x="653" 
d="M189 553v-283q0 -74 33 -114.5t105 -40.5q71 0 104 40.5t33 114.5v283h148v-282q0 -69 -20 -122t-57 -89t-90 -55t-118 -19t-118 19t-90 55t-57 89t-20 122v282h147z" />
    <glyph glyph-name="u" unicode="u" horiz-adv-x="653" 
d="M189 553v-283q0 -74 33 -114.5t105 -40.5q71 0 104 40.5t33 114.5v283h148v-282q0 -69 -20 -122t-57 -89t-90 -55t-118 -19t-118 19t-90 55t-57 89t-20 122v282h147z" />
    <glyph glyph-name="V" unicode="V" horiz-adv-x="738" 
d="M195 553l170 -422h14l168 422h161l-240 -553h-195l-243 553h165z" />
    <glyph glyph-name="v" unicode="v" horiz-adv-x="738" 
d="M195 553l170 -422h14l168 422h161l-240 -553h-195l-243 553h165z" />
    <glyph glyph-name="W" unicode="W" horiz-adv-x="1020" 
d="M186 553l127 -428h4l108 428h167l107 -428h4l131 428h155l-201 -553h-191l-91 387l-95 -387h-188l-193 553h156z" />
    <glyph glyph-name="w" unicode="w" horiz-adv-x="1017" 
d="M186 553l127 -428h4l108 428h167l107 -428h4l131 428h155l-201 -553h-191l-91 387l-95 -387h-188l-193 553h156z" />
    <glyph glyph-name="X" unicode="X" horiz-adv-x="695" 
d="M198 553l138 -204h23l137 204h167l-183 -262l190 -291h-170l-140 218h-26l-138 -218h-171l191 288l-185 265h167z" />
    <glyph glyph-name="x" unicode="x" horiz-adv-x="695" 
d="M198 553l138 -204h23l137 204h167l-183 -262l190 -291h-170l-140 218h-26l-138 -218h-171l191 288l-185 265h167z" />
    <glyph glyph-name="afii10039" unicode="&#x425;" horiz-adv-x="695" 
d="M198 553l138 -204h23l137 204h167l-183 -262l190 -291h-170l-140 218h-26l-138 -218h-171l191 288l-185 265h167z" />
    <glyph glyph-name="afii10087" unicode="&#x445;" horiz-adv-x="695" 
d="M198 553l138 -204h23l137 204h167l-183 -262l190 -291h-170l-140 218h-26l-138 -218h-171l191 288l-185 265h167z" />
    <glyph glyph-name="Y" unicode="Y" horiz-adv-x="717" 
d="M199 553l161 -277h4l154 277h169l-257 -415v-138h-145v138l-255 415h169z" />
    <glyph glyph-name="y" unicode="y" horiz-adv-x="717" 
d="M199 553l161 -277h4l154 277h169l-257 -415v-138h-145v138l-255 415h169z" />
    <glyph glyph-name="Z" unicode="Z" horiz-adv-x="614" 
d="M572 553v-124l-341 -303l125 4h218v-130h-534v128l349 299l-125 -4h-215v130h523z" />
    <glyph glyph-name="z" unicode="z" horiz-adv-x="614" 
d="M572 553v-124l-341 -303l125 4h218v-130h-534v128l349 299l-125 -4h-215v130h523z" />
    <glyph glyph-name="afii10018" unicode="&#x411;" horiz-adv-x="627" 
d="M531 553v-132h-338v-43h209q43 0 79.5 -14t62.5 -39t40.5 -59t14.5 -74q0 -39 -14.5 -74t-40.5 -61t-62.5 -41.5t-79.5 -15.5h-355v553h484zM193 132h200q34 0 46.5 17.5t12.5 42.5q0 23 -13 39.5t-47 16.5h-199v-116z" />
    <glyph glyph-name="afii10066" unicode="&#x431;" horiz-adv-x="627" 
d="M531 553v-132h-338v-43h209q43 0 79.5 -14t62.5 -39t40.5 -59t14.5 -74q0 -39 -14.5 -74t-40.5 -61t-62.5 -41.5t-79.5 -15.5h-355v553h484zM193 132h200q34 0 46.5 17.5t12.5 42.5q0 23 -13 39.5t-47 16.5h-199v-116z" />
    <glyph glyph-name="afii10020" unicode="&#x413;" horiz-adv-x="592" 
d="M563 553v-133h-369v-420h-147v553h516z" />
    <glyph glyph-name="afii10068" unicode="&#x433;" horiz-adv-x="592" 
d="M563 553v-133h-369v-420h-147v553h516z" />
    <glyph glyph-name="afii10021" unicode="&#x414;" horiz-adv-x="736" 
d="M636 553v-421h63v-233h-128l-11 101h-384l-10 -101h-129v233h68l80 421h451zM258 132h231v293h-183z" />
    <glyph glyph-name="afii10069" unicode="&#x434;" horiz-adv-x="736" 
d="M636 553v-421h63v-233h-128l-11 101h-384l-10 -101h-129v233h68l80 421h451zM258 132h231v293h-183z" />
    <glyph glyph-name="afii10024" unicode="&#x416;" horiz-adv-x="971" 
d="M212 553l116 -200h83v200h148v-200h84l116 200h168l-158 -257l175 -296h-170l-127 223h-88v-223h-148v223h-87l-128 -223h-169l175 296l-158 257h168z" />
    <glyph glyph-name="afii10072" unicode="&#x436;" horiz-adv-x="971" 
d="M212 553l116 -200h83v200h148v-200h84l116 200h168l-158 -257l175 -296h-170l-127 223h-88v-223h-148v223h-87l-128 -223h-169l175 296l-158 257h168z" />
    <glyph glyph-name="afii10025" unicode="&#x417;" horiz-adv-x="670" 
d="M426 353q15 0 20.5 8.5t5.5 23.5q0 25 -30 38.5t-93 13.5q-38 0 -66.5 -2.5t-52.5 -9t-47 -18t-50 -28.5l-61 105q34 24 66.5 39.5t66 25t68.5 13.5t73 4q151 0 219 -55q56 -44 56 -123q0 -23 -8.5 -45t-24.5 -34q33 -23 50.5 -53.5t17.5 -77.5q0 -43 -20 -77.5
t-57 -62.5q-39 -29 -97.5 -40.5t-131.5 -11.5q-47 0 -86.5 5t-74.5 15.5t-68.5 27.5t-67.5 41l67 108q50 -33 108.5 -50.5t127.5 -17.5q34 0 62.5 3t48 10.5t30.5 21.5t11 35t-14 30t-51 9h-224v129h227z" />
    <glyph glyph-name="afii10073" unicode="&#x437;" horiz-adv-x="670" 
d="M426 353q15 0 20.5 8.5t5.5 23.5q0 25 -30 38.5t-93 13.5q-38 0 -66.5 -2.5t-52.5 -9t-47 -18t-50 -28.5l-61 105q34 24 66.5 39.5t66 25t68.5 13.5t73 4q151 0 219 -55q56 -44 56 -123q0 -23 -8.5 -45t-24.5 -34q33 -23 50.5 -53.5t17.5 -77.5q0 -43 -20 -77.5
t-57 -62.5q-39 -29 -97.5 -40.5t-131.5 -11.5q-47 0 -86.5 5t-74.5 15.5t-68.5 27.5t-67.5 41l67 108q50 -33 108.5 -50.5t127.5 -17.5q34 0 62.5 3t48 10.5t30.5 21.5t11 35t-14 30t-51 9h-224v129h227z" />
    <glyph glyph-name="afii10026" unicode="&#x418;" horiz-adv-x="671" 
d="M193 553v-351l291 351h140v-553h-146v349l-290 -349h-141v553h146z" />
    <glyph glyph-name="afii10027" unicode="&#x419;" horiz-adv-x="671" 
d="M193 553v-351l291 351h140v-553h-146v349l-290 -349h-141v553h146zM510 636q-26 -21 -48.5 -34t-43.5 -20t-41 -9t-42 -2t-42 2t-41 9t-43.5 20t-47.5 34l68 79q22 -16 45 -24t61 -8t61 8t46 24z" />
    <glyph glyph-name="afii10074" unicode="&#x438;" horiz-adv-x="671" 
d="M193 553v-351l291 351h140v-553h-146v349l-290 -349h-141v553h146z" />
    <glyph glyph-name="afii10075" unicode="&#x439;" horiz-adv-x="671" 
d="M193 553v-351l291 351h140v-553h-146v349l-290 -349h-141v553h146zM502 672q-26 -21 -48.5 -34t-43.5 -20t-41 -9t-42 -2t-42 2t-41 9t-43.5 20t-47.5 34l68 79q22 -16 45 -24t61 -8t61 8t46 24z" />
    <glyph glyph-name="afii10029" unicode="&#x41b;" horiz-adv-x="680" 
d="M633 553v-553h-147v421h-178l-52 -276q-14 -77 -59 -111t-117 -34h-76v133h71q31 0 37 31l73 389h448z" />
    <glyph glyph-name="afii10077" unicode="&#x43b;" horiz-adv-x="680" 
d="M633 553v-553h-147v421h-178l-52 -276q-14 -77 -59 -111t-117 -34h-76v133h71q31 0 37 31l73 389h448z" />
    <glyph glyph-name="afii10033" unicode="&#x41f;" horiz-adv-x="643" 
d="M597 553v-553h-148v423h-256v-423h-146v553h550z" />
    <glyph glyph-name="afii10081" unicode="&#x43f;" horiz-adv-x="643" 
d="M597 553v-553h-148v423h-256v-423h-146v553h550z" />
    <glyph glyph-name="afii10037" unicode="&#x423;" horiz-adv-x="670" 
d="M170 553l76 -227q7 -20 28 -20h140l83 247h151l-148 -435q-9 -26 -25 -47.5t-37.5 -37t-47 -24.5t-53.5 -9h-163v124h157q26 0 36 27l7 24h-106q-66 0 -104 28.5t-58 88.5l-88 261h152z" />
    <glyph glyph-name="afii10085" unicode="&#x443;" horiz-adv-x="670" 
d="M170 553l76 -227q7 -20 28 -20h140l83 247h151l-148 -435q-9 -26 -25 -47.5t-37.5 -37t-47 -24.5t-53.5 -9h-163v124h157q26 0 36 27l7 24h-106q-66 0 -104 28.5t-58 88.5l-88 261h152z" />
    <glyph glyph-name="afii10038" unicode="&#x424;" horiz-adv-x="864" 
d="M359 553h147v-57h99q50 0 92.5 -16t74 -44.5t49 -69.5t17.5 -90q0 -50 -17.5 -89.5t-49 -68t-74 -43.5t-92.5 -15h-99v-60h-147v60h-100q-50 0 -92.5 15t-73.5 43.5t-48.5 68t-17.5 89.5q0 49 17.5 90t48.5 69.5t73.5 44.5t92.5 16h100v57zM264 361q-43 0 -66.5 -21
t-23.5 -63t24.5 -62t65.5 -20h95v166h-95zM506 195h94q41 0 65.5 20t24.5 62t-23.5 63t-66.5 21h-94v-166z" />
    <glyph glyph-name="afii10086" unicode="&#x444;" horiz-adv-x="864" 
d="M359 553h147v-57h99q50 0 92.5 -16t74 -44.5t49 -69.5t17.5 -90q0 -50 -17.5 -89.5t-49 -68t-74 -43.5t-92.5 -15h-99v-60h-147v60h-100q-50 0 -92.5 15t-73.5 43.5t-48.5 68t-17.5 89.5q0 49 17.5 90t48.5 69.5t73.5 44.5t92.5 16h100v57zM264 361q-43 0 -66.5 -21
t-23.5 -63t24.5 -62t65.5 -20h95v166h-95zM506 195h94q41 0 65.5 20t24.5 62t-23.5 63t-66.5 21h-94v-166z" />
    <glyph glyph-name="afii10040" unicode="&#x426;" horiz-adv-x="682" 
d="M194 553v-420h252v420h148v-420h55v-234h-129l-9 101h-464v553h147z" />
    <glyph glyph-name="afii10088" unicode="&#x446;" horiz-adv-x="682" 
d="M194 553v-420h252v420h148v-420h55v-234h-129l-9 101h-464v553h147z" />
    <glyph glyph-name="afii10041" unicode="&#x427;" horiz-adv-x="646" 
d="M198 553v-210q0 -50 24 -73.5t69 -23.5h156v307h148v-553h-148v113h-174q-50 0 -91 16t-70.5 44.5t-45.5 69t-16 89.5v221h148z" />
    <glyph glyph-name="afii10089" unicode="&#x447;" horiz-adv-x="646" 
d="M198 553v-210q0 -50 24 -73.5t69 -23.5h156v307h148v-553h-148v113h-174q-50 0 -91 16t-70.5 44.5t-45.5 69t-16 89.5v221h148z" />
    <glyph glyph-name="afii10042" unicode="&#x428;" horiz-adv-x="882" 
d="M192 553v-421h176v421h146v-421h176v421h146v-553h-789v553h145z" />
    <glyph glyph-name="afii10090" unicode="&#x448;" horiz-adv-x="882" 
d="M192 553v-421h176v421h146v-421h176v421h146v-553h-789v553h145z" />
    <glyph glyph-name="afii10043" unicode="&#x429;" horiz-adv-x="924" 
d="M47 0v553h145v-421h176v421h146v-421h176v421h146v-420h55v-234h-129l-9 101h-706z" />
    <glyph glyph-name="afii10091" unicode="&#x449;" horiz-adv-x="924" 
d="M47 0v553h145v-421h176v421h146v-421h176v421h146v-420h55v-234h-129l-9 101h-706z" />
    <glyph glyph-name="afii10044" unicode="&#x42a;" horiz-adv-x="716" 
d="M294 553v-115h160q49 0 91.5 -15.5t74 -43.5t49 -68t17.5 -89q0 -50 -17.5 -90.5t-49 -70t-74 -45.5t-91.5 -16h-307v425l-125 6v122h272zM294 134h155q39 0 64.5 23.5t25.5 64.5q0 40 -25.5 60.5t-64.5 20.5h-155v-169z" />
    <glyph glyph-name="afii10092" unicode="&#x44a;" horiz-adv-x="716" 
d="M294 553v-115h160q49 0 91.5 -15.5t74 -43.5t49 -68t17.5 -89q0 -50 -17.5 -90.5t-49 -70t-74 -45.5t-91.5 -16h-307v425l-125 6v122h272zM294 134h155q39 0 64.5 23.5t25.5 64.5q0 40 -25.5 60.5t-64.5 20.5h-155v-169z" />
    <glyph glyph-name="afii10045" unicode="&#x42b;" horiz-adv-x="832" 
d="M785 553v-553h-147v553h147zM194 553v-119h173q50 0 92.5 -14.5t73.5 -42t48.5 -67t17.5 -88.5q0 -50 -17.5 -90.5t-48.5 -70t-73.5 -45.5t-92.5 -16h-320v553h147zM194 134h163q50 0 72.5 21.5t22.5 66.5q0 44 -22.5 62.5t-72.5 18.5h-163v-169z" />
    <glyph glyph-name="afii10093" unicode="&#x44b;" horiz-adv-x="832" 
d="M785 553v-553h-147v553h147zM194 553v-119h173q50 0 92.5 -14.5t73.5 -42t48.5 -67t17.5 -88.5q0 -50 -17.5 -90.5t-48.5 -70t-73.5 -45.5t-92.5 -16h-320v553h147zM194 134h163q50 0 72.5 21.5t22.5 66.5q0 44 -22.5 62.5t-72.5 18.5h-163v-169z" />
    <glyph glyph-name="afii10046" unicode="&#x42c;" horiz-adv-x="632" 
d="M194 553v-119h173q50 0 92.5 -14.5t73.5 -42t48.5 -67t17.5 -88.5q0 -50 -17.5 -90.5t-48.5 -70t-73.5 -45.5t-92.5 -16h-320v553h147zM194 134h163q50 0 72.5 21.5t22.5 66.5q0 44 -22.5 62.5t-72.5 18.5h-163v-169z" />
    <glyph glyph-name="afii10094" unicode="&#x44c;" horiz-adv-x="632" 
d="M194 553v-119h173q50 0 92.5 -14.5t73.5 -42t48.5 -67t17.5 -88.5q0 -50 -17.5 -90.5t-48.5 -70t-73.5 -45.5t-92.5 -16h-320v553h147zM194 134h163q50 0 72.5 21.5t22.5 66.5q0 44 -22.5 62.5t-72.5 18.5h-163v-169z" />
    <glyph glyph-name="afii10047" unicode="&#x42d;" horiz-adv-x="673" 
d="M490 345q-16 47 -56.5 68.5t-95.5 21.5q-63 0 -104 -22.5t-71 -67.5l-113 64q42 78 116.5 117.5t174.5 39.5q65 0 121 -20.5t97 -58t64.5 -91t23.5 -120.5t-23.5 -121t-65 -91.5t-98.5 -57.5t-123 -20q-100 0 -172.5 39t-114.5 118l115 64q29 -45 69.5 -67t103.5 -22
q59 0 101 25.5t56 74.5h-247v127h242z" />
    <glyph glyph-name="afii10095" unicode="&#x44d;" horiz-adv-x="673" 
d="M490 345q-16 47 -56.5 68.5t-95.5 21.5q-63 0 -104 -22.5t-71 -67.5l-113 64q42 78 116.5 117.5t174.5 39.5q65 0 121 -20.5t97 -58t64.5 -91t23.5 -120.5t-23.5 -121t-65 -91.5t-98.5 -57.5t-123 -20q-100 0 -172.5 39t-114.5 118l115 64q29 -45 69.5 -67t103.5 -22
q59 0 101 25.5t56 74.5h-247v127h242z" />
    <glyph glyph-name="afii10048" unicode="&#x42e;" horiz-adv-x="897" 
d="M193 553v-198h72q12 49 40 88.5t67 66.5t87 41.5t101 14.5q63 0 118 -20t96.5 -57.5t65 -91t23.5 -121.5t-23.5 -121.5t-65 -91t-96.5 -57.5t-118 -20q-57 0 -107.5 16t-90.5 47t-67 75t-36 100h-66v-224h-146v553h146zM403 276q0 -79 39.5 -122t117.5 -43t117.5 43
t39.5 122t-39.5 122t-117.5 43t-117.5 -43t-39.5 -122z" />
    <glyph glyph-name="afii10096" unicode="&#x44e;" horiz-adv-x="897" 
d="M193 553v-198h72q12 49 40 88.5t67 66.5t87 41.5t101 14.5q63 0 118 -20t96.5 -57.5t65 -91t23.5 -121.5t-23.5 -121.5t-65 -91t-96.5 -57.5t-118 -20q-57 0 -107.5 16t-90.5 47t-67 75t-36 100h-66v-224h-146v553h146zM403 276q0 -79 39.5 -122t117.5 -43t117.5 43
t39.5 122t-39.5 122t-117.5 43t-117.5 -43t-39.5 -122z" />
    <glyph glyph-name="afii10049" unicode="&#x42f;" horiz-adv-x="634" 
d="M586 0h-147v116h-172l-59 -116h-160l83 150q-45 26 -74 72.5t-29 110.5q0 49 17.5 90t49 69.5t73.5 44.5t92 16h326v-553zM265 419q-39 0 -64.5 -22.5t-25.5 -63.5q0 -40 25.5 -61t64.5 -21h174v168h-174z" />
    <glyph glyph-name="afii10097" unicode="&#x44f;" horiz-adv-x="634" 
d="M586 0h-147v116h-172l-59 -116h-160l83 150q-45 26 -74 72.5t-29 110.5q0 49 17.5 90t49 69.5t73.5 44.5t92 16h326v-553zM265 419q-39 0 -64.5 -22.5t-25.5 -63.5q0 -40 25.5 -61t64.5 -21h174v168h-174z" />
    <glyph glyph-name="afii10054" unicode="&#x405;" horiz-adv-x="660" 
d="M538 370q-48 35 -100 50t-117 15q-35 0 -57.5 -3.5t-35.5 -10t-17.5 -14.5t-4.5 -17q0 -17 16 -22.5t41 -8.5l161 -18q91 -11 144 -51t53 -120q0 -48 -22.5 -82.5t-61.5 -57t-92.5 -33.5t-115.5 -11q-86 0 -155 21t-137 73l69 114q57 -40 114.5 -60t121.5 -20
q57 0 96.5 13t39.5 41q0 14 -7 22t-33 10l-190 22q-88 10 -137.5 48.5t-49.5 118.5q0 45 20.5 78.5t56 55.5t82.5 32.5t101 10.5q80 0 151 -18.5t137 -69.5z" />
    <glyph glyph-name="afii10102" unicode="&#x455;" horiz-adv-x="660" 
d="M538 370q-48 35 -100 50t-117 15q-35 0 -57.5 -3.5t-35.5 -10t-17.5 -14.5t-4.5 -17q0 -17 16 -22.5t41 -8.5l161 -18q91 -11 144 -51t53 -120q0 -48 -22.5 -82.5t-61.5 -57t-92.5 -33.5t-115.5 -11q-86 0 -155 21t-137 73l69 114q57 -40 114.5 -60t121.5 -20
q57 0 96.5 13t39.5 41q0 14 -7 22t-33 10l-190 22q-88 10 -137.5 48.5t-49.5 118.5q0 45 20.5 78.5t56 55.5t82.5 32.5t101 10.5q80 0 151 -18.5t137 -69.5z" />
    <glyph glyph-name="afii10105" unicode="&#x458;" horiz-adv-x="597" 
d="M551 553v-306q0 -52 -17 -99.5t-51.5 -83.5t-86.5 -57t-123 -21q-92 0 -159 44t-99 122l127 60q14 -44 50.5 -69.5t81.5 -25.5q37 0 62.5 10.5t41 29t22.5 44t7 56.5v296h144z" />
    <glyph glyph-name="afii10057" unicode="&#x408;" horiz-adv-x="597" 
d="M551 553v-306q0 -52 -17 -99.5t-51.5 -83.5t-86.5 -57t-123 -21q-92 0 -159 44t-99 122l127 60q14 -44 50.5 -69.5t81.5 -25.5q37 0 62.5 10.5t41 29t22.5 44t7 56.5v296h144z" />
    <glyph glyph-name="afii10023" unicode="&#x401;" horiz-adv-x="610" 
d="M556 553v-133h-362v-73h325v-133h-325v-78h375v-136h-522v553h509zM185 756q31 0 54.5 -22t23.5 -54q0 -16 -6.5 -30.5t-17 -25.5t-25 -17.5t-29.5 -6.5q-32 0 -55.5 24t-23.5 56t23.5 54t55.5 22zM422 756q31 0 55 -22t24 -54q0 -16 -6.5 -30.5t-17.5 -25.5t-25.5 -17.5
t-29.5 -6.5t-29 6.5t-24.5 17.5t-17 25.5t-6.5 30.5q0 32 23 54t54 22z" />
    <glyph glyph-name="afii10071" unicode="&#x451;" horiz-adv-x="610" 
d="M556 553v-133h-362v-73h325v-133h-325v-78h375v-136h-522v553h509zM181 756q31 0 54.5 -22t23.5 -54q0 -16 -6.5 -30.5t-17 -25.5t-25 -17.5t-29.5 -6.5q-32 0 -55.5 24t-23.5 56t23.5 54t55.5 22zM418 756q31 0 55 -22t24 -54q0 -16 -6.5 -30.5t-17.5 -25.5t-25.5 -17.5
t-29.5 -6.5t-29 6.5t-24.5 17.5t-17 25.5t-6.5 30.5q0 32 23 54t54 22z" />
    <glyph glyph-name="period" unicode="." horiz-adv-x="276" 
d="M138 183q21 0 39 -7.5t31.5 -21t21.5 -31.5t8 -38q0 -42 -29 -68.5t-71 -26.5q-41 0 -69.5 26.5t-28.5 68.5q0 41 28.5 69.5t69.5 28.5z" />
    <glyph glyph-name="one" unicode="1" horiz-adv-x="321" 
d="M274 553v-553h-147v423h-98v130h245z" />
    <glyph glyph-name="two" unicode="2" horiz-adv-x="607" 
d="M546 0h-492v140l324 183q35 18 35 50q0 30 -30.5 45t-87.5 15q-26 0 -47.5 -4t-41 -13t-38 -23t-39.5 -33l-91 92q58 64 123.5 89t141.5 25q56 0 103 -12t81.5 -36.5t53.5 -61.5t19 -87q0 -51 -29.5 -86.5t-76.5 -60.5l-173 -92h265v-130z" />
    <glyph glyph-name="three" unicode="3" horiz-adv-x="624" 
d="M367 364q32 0 32 30q0 23 -24 32.5t-82 9.5q-51 0 -88.5 -10.5t-79.5 -41.5l-68 100q31 24 59 40t55.5 25.5t56.5 13t62 3.5q74 0 122.5 -12.5t83.5 -39.5q28 -22 39.5 -53t11.5 -70q0 -23 -10.5 -46.5t-30.5 -35.5q38 -20 57.5 -50t19.5 -77q0 -43 -20 -80t-58 -65
q-39 -29 -92.5 -40t-125.5 -11q-70 0 -136.5 21.5t-117.5 67.5l71 109q25 -18 47 -31.5t44 -21.5t45.5 -12t51.5 -4q75 0 109 14.5t34 56.5q0 23 -15.5 37.5t-53.5 14.5h-188v126h189z" />
    <glyph glyph-name="four" unicode="4" horiz-adv-x="653" 
d="M555 553v-341h55v-129h-55v-83h-147v83h-373v127l288 343h232zM222 212h186v208h-27z" />
    <glyph glyph-name="five" unicode="5" horiz-adv-x="620" 
d="M78 232l15 321h455v-132h-316l-4 -58q29 7 57 10.5t66 3.5q115 0 175.5 -49.5t60.5 -140.5q0 -55 -21 -93t-58.5 -62t-89 -34.5t-112.5 -10.5q-43 0 -80 4.5t-70.5 14.5t-65.5 26t-64 39l67 113q29 -18 55 -30t52 -20t54 -11.5t62 -3.5q65 0 93.5 16.5t28.5 51.5
t-26.5 48t-83.5 13q-30 0 -63.5 -6t-65.5 -18z" />
    <glyph glyph-name="six" unicode="6" horiz-adv-x="631" 
d="M534 392q-48 27 -94 36.5t-103 9.5t-92 -19t-49 -66q42 11 79.5 16.5t75.5 5.5q51 0 96 -10.5t78.5 -34t53.5 -60t20 -88.5q0 -46 -20 -82t-56 -61t-85.5 -38t-107.5 -13q-72 0 -124.5 20.5t-87.5 58.5t-52 91t-17 119q0 62 20 115t57.5 91.5t91 60.5t119.5 22
q72 0 134 -13.5t119 -49.5zM191 238q3 -30 10 -52.5t23.5 -37.5t44 -22.5t71.5 -7.5q59 0 87 14t28 51q0 35 -27 48.5t-90 13.5q-35 0 -68 -1t-79 -6z" />
    <glyph glyph-name="seven" unicode="7" horiz-adv-x="586" 
d="M112 0l274 421h-350v132h516v-127l-265 -426h-175z" />
    <glyph glyph-name="eight" unicode="8" horiz-adv-x="652" 
d="M326 566q69 0 117 -12.5t78 -34t43 -50.5t13 -61q0 -34 -14.5 -59.5t-32.5 -35.5q45 -22 65 -57t20 -88q0 -92 -76 -137t-213 -45t-213 43t-76 137q0 21 6.5 42.5t18 39.5t27 32t33.5 20q-22 19 -34.5 39t-12.5 57q0 45 20 77t54 53t80 30.5t97 9.5zM229 238
q-27 -8 -35 -24.5t-8 -34.5q0 -28 32 -46.5t108 -18.5q72 0 106 15t34 44q0 14 -8 27.5t-28 15.5zM418 352q8 8 10.5 17t2.5 23q0 26 -23 36.5t-82 10.5q-38 0 -59 -3.5t-31.5 -9.5t-12.5 -14t-2 -17q0 -12 11.5 -19t37.5 -9z" />
    <glyph glyph-name="nine" unicode="9" horiz-adv-x="631" 
d="M106 154q48 -23 93.5 -30.5t102.5 -7.5q55 0 91 18.5t50 65.5q-42 -10 -79.5 -17t-75.5 -7q-49 0 -94 10.5t-79 33.5t-54 59.5t-20 89.5q0 45 19 81.5t54.5 62t85 39.5t109.5 14q72 0 125 -20t88 -57.5t52 -91t17 -120.5q0 -63 -21 -116t-59 -91.5t-91 -60t-118 -21.5
q-72 0 -132.5 12t-120.5 44zM448 315q-3 30 -10 52.5t-23.5 37.5t-44.5 22.5t-72 7.5q-59 0 -86.5 -15t-27.5 -52q0 -35 26.5 -48.5t91.5 -13.5q34 0 67.5 1t78.5 8z" />
    <glyph glyph-name="comma" unicode="," horiz-adv-x="259" 
d="M79 4q-22 13 -34.5 34.5t-12.5 47.5q0 18 6 35.5t19 31t32.5 22t45.5 8.5q17 0 33.5 -6.5t29.5 -19t21 -30.5t8 -42q0 -8 -1.5 -19t-4.5 -21l-64 -162l-96 21z" />
    <glyph glyph-name="hyphen" unicode="-" horiz-adv-x="395" 
d="M355 346v-129h-315v129h315z" />
    <glyph glyph-name="plus" unicode="+" horiz-adv-x="432" 
d="M148 346v124h136v-124h118v-120h-118v-117h-136v117h-119v120h119z" />
    <glyph glyph-name="asterisk" unicode="*" horiz-adv-x="377" 
d="M146 594h87l7 -69l58 32l44 -77l-58 -39l58 -36l-44 -78l-58 33l-9 -71h-87l-6 71l-60 -33l-44 79l60 35l-60 39l44 77l60 -32z" />
    <glyph glyph-name="parenright" unicode=")" horiz-adv-x="245" 
d="M144 599q15 -33 25.5 -74.5t17 -85t9.5 -85.5t3 -77q0 -73 -9.5 -157.5t-43.5 -169.5l-118 29q21 72 29 147.5t8 147.5q0 73 -8 148.5t-29 146.5z" />
    <glyph glyph-name="parenleft" unicode="(" horiz-adv-x="245" 
d="M222 569q-21 -71 -29 -146.5t-8 -148.5q0 -72 8 -147.5t29 -147.5l-117 -29q-34 85 -44 169.5t-10 157.5q0 35 3 77t9.5 85.5t17 85t25.5 74.5z" />
    <glyph glyph-name="ampersand" unicode="&#x26;" horiz-adv-x="702" 
d="M654 254l-51 -12l56 -242h-79l-51 37q-48 -25 -99.5 -38t-110.5 -13q-53 0 -105.5 9t-94.5 33q-41 23 -65 59.5t-24 93.5q0 49 19 76t56 47q-20 12 -30.5 36.5t-10.5 49.5q0 38 13 66.5t36 49.5q21 18 47.5 29.5t56.5 18t60.5 9.5t59.5 3q38 0 71.5 -3.5t65.5 -12
t63.5 -22.5t65.5 -35l-61 -105q-24 13 -47.5 22t-48 15t-51.5 9t-60 3q-64 0 -94 -11t-30 -38q0 -15 10.5 -23t25.5 -8h407v-103zM314 114q48 0 89 7.5t75 20.5l-20 90h-213q-40 0 -54 -11t-14 -34q0 -37 36.5 -55t100.5 -18z" />
    <glyph glyph-name="percent" horiz-adv-x="830" 
d="M611 520l-318 -552l-100 46l318 552zM635 -16q-35 0 -64 12t-50 33.5t-32.5 50.5t-11.5 64q0 34 11.5 63.5t32.5 51t50 34t64 12.5q34 0 62.5 -12.5t49 -34t32 -51t11.5 -63.5q0 -35 -11.5 -64t-32 -50.5t-49 -33.5t-62.5 -12zM635 85q10 0 20 2.5t18 9.5t13 18.5t5 28.5
t-5 28t-13 18t-18 9.5t-20 2.5q-9 0 -19.5 -2.5t-19 -9.5t-14 -18t-5.5 -28t5.5 -28.5t14 -18.5t19 -9.5t19.5 -2.5zM187 237q-35 0 -64 12.5t-49.5 34t-32 51t-11.5 63.5t11.5 63.5t32 51.5t49.5 34t64 12q34 0 62.5 -12t49.5 -34t32.5 -51.5t11.5 -63.5t-11.5 -63.5
t-32.5 -51t-49.5 -34t-62.5 -12.5zM187 340q9 0 19.5 2.5t18.5 9t13.5 18t5.5 28.5q0 34 -19 46.5t-38 12.5q-10 0 -20.5 -3t-18.5 -9.5t-13.5 -18t-5.5 -28.5t5.5 -28.5t13.5 -18t18.5 -9t20.5 -2.5z" />
    <glyph glyph-name="dollar" unicode="$" horiz-adv-x="660" 
d="M254 -10q-60 8 -112 28.5t-105 61.5l69 111q57 -38 113.5 -57.5t122.5 -19.5q57 0 96.5 14.5t39.5 42.5q0 14 -7 22.5t-33 10.5l-190 22q-88 10 -137.5 47.5t-49.5 117.5q0 37 15.5 66.5t41.5 50.5t61.5 34.5t75.5 19.5l4 65h137l3 -65q57 -7 108.5 -26.5t101.5 -57.5
l-71 -105q-48 32 -100 46.5t-117 14.5q-35 0 -57.5 -3.5t-35.5 -9t-17.5 -13t-4.5 -16.5q0 -17 16 -21.5t41 -7.5l161 -18q91 -11 144 -52t53 -120q0 -41 -16.5 -72.5t-46 -54.5t-70 -37t-89.5 -19l-3 -83h-137z" />
    <glyph glyph-name="numbersign" unicode="#" horiz-adv-x="456" 
d="M96 270l5 35h-66v100h79l10 76h101l-10 -76h35l10 76h102l-10 -76h60v-100h-73l-5 -35h78v-100h-91l-7 -65h-102l8 65h-35l-9 -65h-100l7 65h-48v100h61zM198 270h34l5 35h-34z" />
    <glyph glyph-name="quotedbl" unicode="&#x22;" horiz-adv-x="348" 
d="M162 553v-77l-13 -109h-114v186h127zM314 553v-77l-13 -109h-114v186h127z" />
    <glyph glyph-name="quotesingle" unicode="'" horiz-adv-x="198" 
d="M162 553v-77l-13 -109h-114v186h127z" />
    <glyph glyph-name="slash" unicode="/" horiz-adv-x="364" 
d="M342 558l-209 -599l-117 34l204 600z" />
    <glyph glyph-name="colon" unicode=":" horiz-adv-x="263" 
d="M133 457q19 0 36 -7.5t29.5 -20t20 -29.5t7.5 -36t-7.5 -36t-20 -29.5t-29.5 -20t-36 -7.5q-20 0 -37 7.5t-29.5 20t-20 29.5t-7.5 36t7.5 36t20 29.5t29.5 20t37 7.5zM133 173q19 0 36 -7.5t29.5 -20t20 -29t7.5 -35.5q0 -39 -27.5 -63.5t-65.5 -24.5q-39 0 -66.5 24.5
t-27.5 63.5q0 19 7.5 35.5t20 29t29.5 20t37 7.5z" />
    <glyph glyph-name="semicolon" unicode=";" horiz-adv-x="263" 
d="M129 457q19 0 36 -7.5t29.5 -20t20 -29.5t7.5 -36t-7.5 -36t-20 -29.5t-29.5 -20t-36 -7.5q-20 0 -37 7.5t-29.5 20t-20 29.5t-7.5 36t7.5 36t20 29.5t29.5 20t37 7.5zM139 174q18 0 34.5 -8t28.5 -21t19.5 -30.5t7.5 -36.5q0 -14 -7 -32l-60 -162l-94 20l17 91
q-21 13 -33 36.5t-12 47.5q0 19 8 36t21.5 30t31.5 21t38 8z" />
    <glyph glyph-name="less" unicode="&#x3c;" horiz-adv-x="321" 
d="M291 364l-77 -100l77 -98l-72 -73l-186 171l186 173z" />
    <glyph glyph-name="greater" unicode="&#x3e;" horiz-adv-x="321" 
d="M288 264l-186 -171l-72 73l78 98l-78 100l72 73z" />
    <glyph glyph-name="equal" unicode="=" horiz-adv-x="398" 
d="M356 432v-116h-315v116h315zM356 247v-116h-315v116h315z" />
    <glyph glyph-name="uni00AD" unicode="&#xad;" horiz-adv-x="395" 
d="M355 346v-129h-315v129h315z" />
    <glyph glyph-name="endash" unicode="&#x2013;" horiz-adv-x="468" 
d="M428 346v-129h-388v129h388z" />
    <glyph glyph-name="question" unicode="?" horiz-adv-x="575" 
d="M275 179q41 0 69 -27.5t28 -68.5t-28 -65.5t-69 -24.5q-39 0 -68 24.5t-29 65.5q0 20 8 37.5t21 30.5t30.5 20.5t37.5 7.5zM201 273q0 36 20.5 69t70.5 49l36 11q11 4 22.5 9t21 11t15.5 14.5t6 19.5q0 32 -27.5 43t-83.5 11q-66 0 -112.5 -18t-90.5 -59l-70 98
q55 57 124.5 83t147.5 26q57 0 105 -10t83.5 -32.5t55.5 -59t20 -90.5q0 -31 -12 -56t-32.5 -45.5t-47.5 -35.5t-56 -25l-28 -11q-8 -3 -14 -14t-6 -22v-20h-148v54z" />
    <glyph glyph-name="at" unicode="@" horiz-adv-x="705" 
d="M402 341q-11 6 -25.5 9t-27.5 3q-25 0 -41.5 -17.5t-16.5 -44.5q0 -29 20 -43.5t38 -14.5q19 0 36 13t17 42v53zM512 272q0 -14 3 -21.5t14 -7.5q13 0 20.5 15t7.5 32q0 44 -12.5 81t-38.5 64t-65 42t-91 15q-95 0 -149 -52t-54 -146q0 -47 15 -85t43.5 -64.5t69 -41
t91.5 -14.5q85 0 148 35l42 -75q-42 -35 -88.5 -49t-102.5 -14q-77 0 -138.5 21.5t-104.5 61.5t-66.5 97t-23.5 128t24 127.5t67 95.5t101 59.5t126 20.5q74 0 132.5 -22.5t99 -63t62 -97t21.5 -124.5q0 -24 -8 -51.5t-24 -51t-40 -39t-55 -15.5q-27 0 -53 10.5t-43 23.5
q-23 -14 -47.5 -25.5t-49.5 -11.5q-35 0 -65.5 11.5t-52.5 32.5t-34.5 50.5t-12.5 66.5q0 38 12.5 68t35 50.5t53 31.5t66.5 11q54 0 91.5 -15.5t73.5 -51.5v-113z" />
    <glyph glyph-name="bracketleft" unicode="[" horiz-adv-x="275" 
d="M241 668v-109h-54v-567h54v-109h-201v785h201z" />
    <glyph glyph-name="bracketright" unicode="]" horiz-adv-x="275" 
d="M235 668v-785h-200v108h53v568h-53v109h200z" />
    <glyph glyph-name="backslash" unicode="\" horiz-adv-x="364" 
d="M138 593l204 -600l-117 -34l-209 599z" />
    <glyph glyph-name="asciicircum" unicode="^" horiz-adv-x="389" 
d="M354 426l-83 -80l-79 61l-79 -61l-81 80l160 155z" />
    <glyph glyph-name="Euro" unicode="&#x20ac;" horiz-adv-x="675" 
d="M57 382q16 43 44.5 77t67 58t85 36.5t97.5 12.5q200 0 286 -157l-114 -65q-31 45 -70.5 70t-103.5 25q-43 0 -76.5 -15.5t-56.5 -41.5h211v-98h-410v98h40zM427 264v-98h-209q50 -52 131 -52q63 0 103.5 24t69.5 69l114 -64q-42 -79 -113.5 -118t-171.5 -39
q-51 0 -97.5 12t-84.5 35.5t-66.5 57t-44.5 75.5h-41v98h410z" />
    <glyph glyph-name="perthousand" unicode="&#x2030;" horiz-adv-x="1159" 
d="M611 520l-318 -552l-100 46l318 552zM635 -16q-35 0 -64 12t-50 33.5t-32.5 50.5t-11.5 64q0 34 11.5 63.5t32.5 51t50 34t64 12.5q34 0 62.5 -12.5t49 -34t32 -51t11.5 -63.5q0 -35 -11.5 -64t-32 -50.5t-49 -33.5t-62.5 -12zM635 85q10 0 20 2.5t18 9.5t13 18.5t5 28.5
t-5 28t-13 18t-18 9.5t-20 2.5q-9 0 -19.5 -2.5t-19 -9.5t-14 -18t-5.5 -28t5.5 -28.5t14 -18.5t19 -9.5t19.5 -2.5zM187 237q-35 0 -64 12.5t-49.5 34t-32 51t-11.5 63.5t11.5 63.5t32 51.5t49.5 34t64 12q34 0 62.5 -12t49.5 -34t32.5 -51.5t11.5 -63.5t-11.5 -63.5
t-32.5 -51t-49.5 -34t-62.5 -12.5zM187 340q9 0 19.5 2.5t18.5 9t13.5 18t5.5 28.5q0 34 -19 46.5t-38 12.5q-10 0 -20.5 -3t-18.5 -9.5t-13.5 -18t-5.5 -28.5t5.5 -28.5t13.5 -18t18.5 -9t20.5 -2.5zM967 -16q-35 0 -64 12t-50 33.5t-32.5 50.5t-11.5 64q0 34 11.5 63.5
t32.5 51t50 34t64 12.5q34 0 62.5 -12.5t49 -34t32 -51t11.5 -63.5q0 -35 -11.5 -64t-32 -50.5t-49 -33.5t-62.5 -12zM967 85q10 0 20 2.5t18 9.5t13 18.5t5 28.5t-5 28t-13 18t-18 9.5t-20 2.5q-9 0 -19.5 -2.5t-19 -9.5t-14 -18t-5.5 -28t5.5 -28.5t14 -18.5t19 -9.5
t19.5 -2.5z" />
    <glyph glyph-name="guilsinglleft" unicode="&#x2039;" horiz-adv-x="324" 
d="M292 366l-79 -100l79 -98l-73 -74l-186 172l186 174z" />
    <glyph glyph-name="guilsinglright" unicode="&#x203a;" horiz-adv-x="324" 
d="M291 266l-186 -172l-74 74l79 98l-79 100l74 74z" />
    <glyph glyph-name="emdash" unicode="&#x2014;" horiz-adv-x="548" 
d="M508 346v-129h-468v129h468z" />
    <glyph glyph-name="trademark" unicode="&#x2122;" horiz-adv-x="660" 
d="M367 553l80 -155l83 155h86v-266h-76v129l-73 -129h-38l-74 129v-129h-75v188h-79v-188h-77v188h-103v78h346z" />
    <glyph glyph-name="braceleft" unicode="{" horiz-adv-x="335" 
d="M315 -135h-53q-86 0 -124 47.5t-38 123.5v110q0 25 -14 43t-37 18h-25v133h25q23 0 37 18t14 43v110q0 76 38 123t124 47h53v-119h-29q-25 0 -37.5 -12t-12.5 -39v-124q0 -33 -12.5 -63.5t-46.5 -50.5q34 -20 46.5 -50t12.5 -63v-124q0 -27 12.5 -39t37.5 -12h29v-120z
" />
    <glyph glyph-name="braceright" unicode="}" horiz-adv-x="335" 
d="M20 -15h29q25 0 37.5 12t12.5 39v124q0 33 12.5 63t45.5 50q-33 20 -45.5 50.5t-12.5 63.5v124q0 27 -12.5 39t-37.5 12h-29v119h52q87 0 125 -47t38 -123v-110q0 -25 14 -43t37 -18h25v-133h-25q-23 0 -37 -18t-14 -43v-110q0 -38 -9 -69.5t-29 -54t-51 -35t-74 -12.5
h-52v120z" />
    <glyph glyph-name="bar" unicode="|" horiz-adv-x="224" 
d="M177 -34h-130v620h130v-620z" />
    <glyph glyph-name="asciitilde" unicode="~" horiz-adv-x="435" 
d="M415 285q-40 -74 -118 -74q-24 0 -42.5 6t-34.5 13t-31.5 13t-34.5 6q-15 0 -31 -8t-30 -26l-66 64q25 45 59.5 65.5t74.5 20.5q26 0 44 -5.5t33 -12.5t28.5 -12.5t31.5 -5.5q19 0 35 7t26 18z" />
    <glyph glyph-name="quoteleft" unicode="&#x2018;" horiz-adv-x="291" 
d="M168 527q18 -10 27 -30t9 -40q0 -33 -25 -55.5t-61 -22.5q-29 0 -53 20.5t-24 59.5q0 13 7 27l59 132l81 -16z" />
    <glyph glyph-name="quoteright" unicode="&#x2019;" horiz-adv-x="231" 
d="M77 447q-18 10 -27 30t-9 40q0 33 25 56t61 23q29 0 53 -20.5t24 -59.5q0 -14 -7 -28l-59 -132l-81 16z" />
    <glyph glyph-name="quotedblleft" unicode="&#x201c;" horiz-adv-x="419" 
d="M325 523q19 -10 29 -30t10 -40q0 -33 -24.5 -55.5t-60.5 -22.5q-29 0 -53 20.5t-24 59.5q0 13 7 27l52 109l75 -16zM159 523q18 -10 27 -30t9 -40q0 -33 -25 -55.5t-61 -22.5q-29 0 -53 20.5t-24 59.5q0 13 7 27l59 132l81 -16z" />
    <glyph glyph-name="quotedblright" unicode="&#x201d;" horiz-adv-x="419" 
d="M71 447q-19 10 -29 30t-10 40q0 33 25 55.5t61 22.5q29 0 53 -20.5t24 -59.5q0 -13 -7 -27l-52 -109l-76 16zM238 447q-19 10 -27.5 30t-8.5 40q0 33 24.5 55.5t60.5 22.5q29 0 53 -20.5t24 -59.5q0 -13 -7 -27l-59 -132l-80 16z" />
    <glyph glyph-name="bullet" unicode="&#x2022;" horiz-adv-x="297" 
d="M142 422q25 0 47.5 -10t39 -26.5t26.5 -39t10 -47.5q0 -26 -10 -48.5t-26.5 -39t-39 -26.5t-47.5 -10q-26 0 -48 10t-39 26.5t-26.5 39t-9.5 48.5q0 25 9.5 47.5t26.5 39t39 26.5t48 10z" />
    <glyph glyph-name="periodcentered" unicode="&#xb7;" horiz-adv-x="262" 
d="M126 395q19 0 36 -7.5t29.5 -20.5t20 -29.5t7.5 -35.5t-7.5 -35.5t-20 -29t-29.5 -20t-36 -7.5q-18 0 -34.5 7.5t-29 20t-20 29t-7.5 35.5t7.5 35.5t20 29.5t29 20.5t34.5 7.5z" />
    <glyph glyph-name="afii10053" unicode="&#x404;" horiz-adv-x="673" 
d="M434 218h-247q14 -49 56 -74.5t101 -25.5q63 0 103.5 22.5t69.5 67.5l116 -65q-42 -79 -114.5 -118t-172.5 -39q-66 0 -123 20t-98.5 57.5t-65 91.5t-23.5 121t23.5 120.5t64.5 91t97 58t121 20.5q100 0 174 -39.5t117 -117.5l-113 -64q-30 45 -71 67.5t-105 22.5
q-55 0 -95.5 -21.5t-56.5 -68.5h242v-127z" />
    <glyph glyph-name="afii10101" unicode="&#x454;" horiz-adv-x="673" 
d="M434 218h-247q14 -49 56 -74.5t101 -25.5q63 0 103.5 22.5t69.5 67.5l116 -65q-42 -79 -114.5 -118t-172.5 -39q-66 0 -123 20t-98.5 57.5t-65 91.5t-23.5 121t23.5 120.5t64.5 91t97 58t121 20.5q100 0 174 -39.5t117 -117.5l-113 -64q-30 45 -71 67.5t-105 22.5
q-55 0 -95.5 -21.5t-56.5 -68.5h242v-127z" />
    <glyph glyph-name="section" unicode="&#xa7;" horiz-adv-x="636" 
d="M463 521q-20 10 -37.5 17t-35.5 11.5t-38 6.5t-44 2q-42 0 -63.5 -9.5t-21.5 -33.5q0 -16 8.5 -24t28.5 -11l105 -14q91 -12 141.5 -54.5t50.5 -120.5q0 -39 -16.5 -75.5t-54.5 -59.5q21 -20 31.5 -44.5t10.5 -61.5q0 -41 -18.5 -73.5t-51.5 -54.5t-77.5 -33.5
t-95.5 -11.5q-41 0 -71.5 3.5t-57.5 11.5t-53 21.5t-56 33.5l58 98q24 -12 43.5 -20.5t40 -13t44 -6.5t54.5 -2q49 0 72 13.5t23 31.5q0 19 -7.5 27.5t-30.5 11.5l-114 17q-91 14 -141 56.5t-50 118.5q0 41 20 77.5t61 58.5q-20 15 -31.5 41t-11.5 60q0 46 20.5 78
t53.5 52.5t73.5 30t80.5 9.5q65 0 117 -15t105 -53zM221 351q-18 -8 -25.5 -22t-7.5 -33q0 -25 8 -38t38 -18l126 -17q25 8 36 26t11 39q0 14 -9 26t-36 16z" />
    <glyph glyph-name="copyright" unicode="&#xa9;" horiz-adv-x="729" 
d="M26 291q0 74 26.5 134t72 102t107 65t131.5 23t131.5 -23t108 -65t73.5 -102t27 -134t-27 -134t-73.5 -102t-108 -65t-131.5 -23t-131.5 23t-107 65t-72 102t-26.5 134zM464 339q-23 21 -46 28.5t-50 7.5q-38 0 -60 -20.5t-22 -62.5q0 -44 22 -64t60 -20q27 0 50 8t45 28
l56 -57q-31 -32 -67 -47.5t-84 -15.5q-37 0 -70 11.5t-57.5 33t-39 53t-14.5 70.5t14.5 70.5t39 53t57.5 33t70 11.5q48 0 83.5 -15.5t67.5 -47.5zM596 291q0 52 -18.5 93.5t-50 70.5t-73.5 44t-89 15q-46 0 -87.5 -15t-73 -44t-50 -70.5t-18.5 -93.5q0 -53 18.5 -94t50 -70
t73 -44t87.5 -15q47 0 89 15t73.5 44t50 70t18.5 94z" />
    <glyph glyph-name="registered" unicode="&#xae;" horiz-adv-x="464" 
d="M94 418q0 -58 35 -97t103 -39q70 0 104.5 39t34.5 97q0 28 -10.5 53t-29 43t-44 28.5t-55.5 10.5q-69 0 -103.5 -39t-34.5 -96zM256 509q35 0 56.5 -20t21.5 -47q0 -17 -7.5 -33.5t-21.5 -25.5l25 -54h-60l-12 33h-52v-33h-57v180h107zM206 413h42q30 0 30 22
q0 23 -30 23h-42v-45zM30 415q0 42 15.5 78t43 62.5t64.5 41t79 14.5t78.5 -14.5t64.5 -41t44 -62.5t16 -78t-15.5 -77.5t-43 -62t-64.5 -41t-80 -14.5q-42 0 -79 14.5t-64.5 41t-43 62t-15.5 77.5z" />
    <glyph glyph-name="degree" unicode="&#xb0;" horiz-adv-x="363" 
d="M166 299q-29 0 -54 9.5t-44.5 26.5t-30.5 41.5t-11 54.5t11 54.5t30.5 41.5t44.5 26.5t54 9.5t55 -9.5t45 -26.5t30 -41.5t11 -54.5t-11 -54.5t-30 -41.5t-45 -26.5t-55 -9.5zM166 393q14 0 27 8.5t13 29.5t-13 28t-27 7q-13 0 -25 -7t-12 -28t12 -29.5t25 -8.5z" />
    <glyph glyph-name="afii61352" unicode="&#x2116;" horiz-adv-x="986" 
d="M927 168v-95h-243v95h243zM804 201q-29 0 -54 9.5t-44.5 26.5t-30.5 41.5t-11 54.5t11 54.5t30.5 42t44.5 27t54 9.5t55 -9.5t45 -27t30 -42t11 -54.5t-11 -54.5t-30 -41.5t-45 -26.5t-55 -9.5zM804 295q14 0 27 8.5t13 29.5t-13 28.5t-27 7.5q-13 0 -25 -7.5t-12 -28.5
t12 -29.5t25 -8.5zM181 553l296 -334v334h146v-553h-135l-296 334v-334h-145v553h134z" />
    <glyph glyph-name="plusminus" unicode="&#xb1;" horiz-adv-x="432" 
d="M148 413v124h136v-124h118v-120h-118v-118h-136v118h-119v120h119zM404 145v-115h-376v115h376z" />
    <glyph glyph-name="afii10103" unicode="&#x456;" horiz-adv-x="241" 
d="M194 553v-553h-147v553h147z" />
    <glyph glyph-name="guillemotleft" unicode="&#xab;" horiz-adv-x="499" 
d="M270 387l-83 -103l83 -101l-74 -74l-175 175l175 177zM474 391l-87 -107l87 -104l-74 -74l-179 178l179 181z" />
    <glyph glyph-name="guillemotright" unicode="&#xbb;" horiz-adv-x="499" 
d="M297 461l176 -177l-176 -175l-73 74l83 101l-83 103zM94 465l178 -181l-178 -178l-74 74l86 104l-86 107z" />
    <glyph glyph-name="paragraph" unicode="&#xb6;" horiz-adv-x="599" 
d="M543 565l-61 -25v-540h-97v554h-71v-554h-99v329q-36 0 -63 15t-45 38.5t-26.5 52t-8.5 56.5q0 27 8.5 55.5t26.5 51.5t45 38t63 15h321z" />
    <glyph glyph-name="grave" unicode="`" horiz-adv-x="217" 
d="M180 625l-124 -32l-45 178l121 31z" />
    <glyph glyph-name="underscore" unicode="_" horiz-adv-x="536" 
d="M526 -60v-112h-516v112h516z" />
    <glyph glyph-name="brokenbar" unicode="&#xa6;" horiz-adv-x="224" 
d="M47 303v283h130v-283h-130zM47 -34v283h130v-283h-130z" />
    <glyph glyph-name="quotedblbase" unicode="&#x201e;" horiz-adv-x="400" 
d="M71 -25q-19 10 -29 30t-10 40q0 33 25 55.5t61 22.5q29 0 53 -20.5t24 -59.5q0 -13 -7 -27l-52 -109l-76 16zM238 -25q-19 10 -27.5 30t-8.5 40q0 33 24.5 55.5t60.5 22.5q29 0 53 -20.5t24 -59.5q0 -13 -7 -27l-59 -132l-80 16z" />
    <glyph glyph-name="quotesinglbase" unicode="&#x201a;" horiz-adv-x="249" 
d="M77 -8q-18 10 -27 30t-9 40q0 33 25 56t61 23q29 0 53 -20.5t24 -59.5q0 -14 -7 -28l-59 -132l-81 16z" />
    <glyph glyph-name="ellipsis" unicode="&#x2026;" horiz-adv-x="831" 
d="M132 197q22 0 41 -8.5t33.5 -22.5t23 -33.5t8.5 -41.5q0 -44 -31 -72.5t-75 -28.5q-22 0 -41.5 7.5t-34 21t-23 32t-8.5 40.5t8.5 41.5t23 33.5t34 22.5t41.5 8.5zM401 197q22 0 41 -8.5t33.5 -22.5t23 -33.5t8.5 -41.5q0 -44 -31 -72.5t-75 -28.5q-22 0 -41.5 7.5
t-34 21t-23 32t-8.5 40.5t8.5 41.5t23 33.5t34 22.5t41.5 8.5zM670 197q22 0 41 -8.5t33.5 -22.5t23 -33.5t8.5 -41.5q0 -44 -31 -72.5t-75 -28.5q-45 0 -75.5 28.5t-30.5 72.5q0 45 30.5 75.5t75.5 30.5z" />
    <glyph glyph-name="afii10106" unicode="&#x459;" horiz-adv-x="1052" 
d="M644 553v-119h146q49 0 91.5 -14.5t74 -42t49 -67t17.5 -88.5q0 -50 -17.5 -90.5t-49 -70t-74 -45.5t-91.5 -16h-294v421h-176l-52 -276q-14 -77 -59 -111t-117 -34h-62v133h57q31 0 37 31l73 389h447zM644 134h135q50 0 73 21.5t23 66.5q0 44 -23 62.5t-73 18.5h-135
v-169z" />
    <glyph glyph-name="exclam" unicode="!" horiz-adv-x="263" 
d="M62 632h138v-420h-138v420zM132 175q19 0 36 -7.5t30 -20.5t20.5 -30t7.5 -36q0 -42 -28 -69t-66 -27q-42 0 -69 27t-27 69q0 38 27 66t69 28z" />
    <glyph glyph-name="acute" unicode="&#xb4;" horiz-adv-x="205" 
d="M59 802l121 -31l-44 -178l-125 32z" />
    <glyph glyph-name="Sacute" unicode="&#x15a;" horiz-adv-x="660" 
d="M538 370q-48 35 -100 50t-117 15q-35 0 -57.5 -3.5t-35.5 -10t-17.5 -14.5t-4.5 -17q0 -17 16 -22.5t41 -8.5l161 -18q91 -11 144 -51t53 -120q0 -48 -22.5 -82.5t-61.5 -57t-92.5 -33.5t-115.5 -11q-86 0 -155 21t-137 73l69 114q57 -40 114.5 -60t121.5 -20
q57 0 96.5 13t39.5 41q0 14 -7 22t-33 10l-190 22q-88 10 -137.5 48.5t-49.5 118.5q0 45 20.5 78.5t56 55.5t82.5 32.5t101 10.5q80 0 151 -18.5t137 -69.5zM316 802l121 -31l-44 -178l-125 32z" />
    <glyph glyph-name="breve" unicode="&#x2d8;" horiz-adv-x="380" 
d="M362 666q-26 -21 -48.5 -34t-43.5 -20t-41 -9t-42 -2t-42 2t-41 9t-43.5 20t-47.5 34l68 79q22 -16 45 -24t61 -8t61 8t46 24z" />
    <glyph glyph-name="cyrbreve" horiz-adv-x="380" 
d="M362 686q-26 -21 -48.5 -34t-43.5 -20t-41 -9t-42 -2t-42 2t-41 9t-43.5 20t-47.5 34l68 79q22 -16 45 -24t61 -8t61 8t46 24z" />
    <glyph glyph-name="caron" unicode="&#x2c7;" horiz-adv-x="354" 
d="M179 705l91 58l58 -75l-149 -110l-150 110l60 75z" />
    <glyph glyph-name="circumflex" unicode="&#x2c6;" horiz-adv-x="354" 
d="M178 653l-92 -58l-57 75l149 110l150 -110l-60 -75z" />
    <glyph glyph-name="dieresis" unicode="&#xa8;" horiz-adv-x="464" 
d="M114 756q31 0 54.5 -22t23.5 -54q0 -16 -6.5 -30.5t-17 -25.5t-25 -17.5t-29.5 -6.5q-32 0 -55.5 24t-23.5 56t23.5 54t55.5 22zM351 756q31 0 55 -22t24 -54q0 -16 -6.5 -30.5t-17.5 -25.5t-25.5 -17.5t-29.5 -6.5t-29 6.5t-24.5 17.5t-17 25.5t-6.5 30.5q0 32 23 54
t54 22z" />
    <glyph glyph-name="dotaccent" unicode="&#x2d9;" horiz-adv-x="235" 
d="M120 754q30 0 52 -21.5t22 -51.5q0 -31 -22 -54.5t-52 -23.5q-31 0 -53 23.5t-22 54.5q0 30 22 51.5t53 21.5z" />
    <glyph glyph-name="commaaccent" horiz-adv-x="291" 
d="M133 -31q36 0 56 -25t20 -58q0 -5 -1 -13.5t-3 -16.5l-51 -133l-81 17l14 76q-18 11 -28 31t-10 40q0 16 6.5 31t18 26t27 18t32.5 7z" />
    <glyph glyph-name="hungarumlaut" unicode="&#x2dd;" horiz-adv-x="378" 
d="M64 802l121 -31l-46 -178l-125 32zM230 802l121 -31l-43 -178l-125 32z" />
    <glyph glyph-name="dblgrave" horiz-adv-x="378" 
d="M351 625l-125 -32l-46 178l121 31zM182 625l-125 -32l-43 178l122 31z" />
    <glyph glyph-name="macron" unicode="&#xaf;" horiz-adv-x="464" 
d="M427 719v-113h-388v113h388z" />
    <glyph glyph-name="ogonek" unicode="&#x2db;" horiz-adv-x="380" 
d="M247 -2q-14 -20 -18 -37t-4 -34q0 -20 6 -40.5t24 -41.5l-64 -51q-38 17 -58 46.5t-20 62.5q0 32 10 55t36 43z" />
    <glyph glyph-name="ring" unicode="&#x2da;" horiz-adv-x="335" 
d="M298 719q0 -29 -10.5 -52.5t-28.5 -40t-42 -25.5t-50 -9t-50 9t-42 25.5t-28.5 40t-10.5 52.5q0 28 10.5 52t28.5 40.5t42 26t50 9.5t50 -9.5t42 -26t28.5 -40.5t10.5 -52zM131 719q0 -23 9.5 -30.5t26.5 -7.5t26.5 7.5t9.5 30.5q0 22 -9.5 30.5t-26.5 8.5t-26.5 -8.5
t-9.5 -30.5z" />
    <glyph glyph-name="tilde" unicode="&#x2dc;" horiz-adv-x="433" 
d="M405 674q-40 -74 -118 -74q-24 0 -42.5 6t-34.5 13t-31.5 13t-34.5 6q-15 0 -31 -8t-30 -26l-66 64q25 45 59.5 65.5t74.5 20.5q26 0 44 -5.5t33 -12.5t28.5 -12.5t31.5 -5.5q19 0 35 7t26 18z" />
    <glyph glyph-name="cedilla" unicode="&#xb8;" horiz-adv-x="238" 
d="M152 17v-40q33 -3 54.5 -28t21.5 -64q0 -26 -11 -44.5t-30.5 -31t-45.5 -18.5t-55 -6q-15 0 -33.5 4t-38.5 12l22 65q12 -5 29 -7t22 -2q20 0 33 5.5t13 22.5q0 24 -20 24h-45l-6 6l10 107z" />
    <glyph glyph-name="Aacute" unicode="&#xc1;" horiz-adv-x="743" 
d="M273 209h195l-84 213h-23zM481 553l235 -553h-156l-35 81h-306l-34 -81h-158l240 553h214zM363 803l121 -31l-44 -178l-125 32z" />
    <glyph glyph-name="Abreve" unicode="&#x102;" horiz-adv-x="743" 
d="M273 209h195l-84 213h-23zM481 553l235 -553h-156l-35 81h-306l-34 -81h-158l240 553h214zM545 661q-26 -21 -48.5 -34t-43.5 -20t-41 -9t-42 -2t-42 2t-41 9t-43.5 20t-47.5 34l68 79q22 -16 45 -24t61 -8t61 8t46 24z" />
    <glyph glyph-name="Acircumflex" unicode="&#xc2;" horiz-adv-x="743" 
d="M273 209h195l-84 213h-23zM481 553l235 -553h-156l-35 81h-306l-34 -81h-158l240 553h214zM371 653l-92 -58l-57 75l149 110l150 -110l-60 -75z" />
    <glyph glyph-name="Agrave" unicode="&#xc0;" horiz-adv-x="743" 
d="M273 209h195l-84 213h-23zM481 553l235 -553h-156l-35 81h-306l-34 -81h-158l240 553h214zM435 625l-124 -32l-45 178l121 31z" />
    <glyph glyph-name="Adieresis" unicode="&#xc4;" horiz-adv-x="743" 
d="M273 209h195l-84 213h-23zM481 553l235 -553h-156l-35 81h-306l-34 -81h-158l240 553h214zM244 756q31 0 54.5 -22t23.5 -54q0 -16 -6.5 -30.5t-17 -25.5t-25 -17.5t-29.5 -6.5q-32 0 -55.5 24t-23.5 56t23.5 54t55.5 22zM481 756q31 0 55 -22t24 -54q0 -16 -6.5 -30.5
t-17.5 -25.5t-25.5 -17.5t-29.5 -6.5t-29 6.5t-24.5 17.5t-17 25.5t-6.5 30.5q0 32 23 54t54 22z" />
    <glyph glyph-name="Amacron" unicode="&#x100;" horiz-adv-x="743" 
d="M273 209h195l-84 213h-23zM481 553l235 -553h-156l-35 81h-306l-34 -81h-158l240 553h214zM565 719v-113h-388v113h388z" />
    <glyph glyph-name="Aogonek" unicode="&#x104;" horiz-adv-x="743" 
d="M480 553l236 -553q-14 -21 -18.5 -39t-4.5 -35q0 -21 6 -41t24 -41l-64 -51q-38 17 -58 46t-20 63q0 33 10.5 55.5t35.5 42.5h-63l-35 81h-312l-35 -81h-155l243 553h210zM271 206h201l-83 212h-34z" />
    <glyph glyph-name="Aring" unicode="&#xc5;" horiz-adv-x="743" 
d="M273 209h195l-84 213h-23zM481 553l235 -553h-156l-35 81h-306l-34 -81h-158l240 553h214zM501 719q0 -29 -10.5 -52.5t-28.5 -40t-42 -25.5t-50 -9t-50 9t-42 25.5t-28.5 40t-10.5 52.5q0 28 10.5 52t28.5 40.5t42 26t50 9.5t50 -9.5t42 -26t28.5 -40.5t10.5 -52z
M334 719q0 -23 9.5 -30.5t26.5 -7.5t26.5 7.5t9.5 30.5q0 22 -9.5 30.5t-26.5 8.5t-26.5 -8.5t-9.5 -30.5z" />
    <glyph glyph-name="Atilde" unicode="&#xc3;" horiz-adv-x="743" 
d="M273 209h195l-84 213h-23zM481 553l235 -553h-156l-35 81h-306l-34 -81h-158l240 553h214zM565 664q-40 -74 -118 -74q-24 0 -42.5 6t-34.5 13t-31.5 13t-34.5 6q-15 0 -31 -8t-30 -26l-66 64q25 45 59.5 65.5t74.5 20.5q26 0 44 -5.5t33 -12.5t28.5 -12.5t31.5 -5.5
q19 0 35 7t26 18z" />
    <glyph glyph-name="AE" unicode="&#xc6;" horiz-adv-x="1083" 
d="M1028 553v-131h-374v-73h338v-130h-338v-83h392v-136h-540v92h-258l-65 -92h-174l376 553h643zM339 224h167v198h-49z" />
    <glyph glyph-name="AEacute" unicode="&#x1fc;" horiz-adv-x="1083" 
d="M1028 553v-131h-374v-73h338v-130h-338v-83h392v-136h-540v92h-258l-65 -92h-174l376 553h643zM339 224h167v198h-49zM559 802l121 -31l-44 -178l-125 32z" />
    <glyph glyph-name="Cacute" unicode="&#x106;" horiz-adv-x="675" 
d="M523 344q-31 45 -70.5 68.5t-103.5 23.5q-74 0 -118.5 -43t-44.5 -117q0 -36 12 -65.5t33.5 -50.5t51.5 -32.5t66 -11.5q63 0 103.5 23t69.5 68l114 -64q-42 -79 -113.5 -118t-171.5 -39q-67 0 -124 20t-98.5 57.5t-65 91.5t-23.5 121t24 120.5t66 91t98.5 58t122.5 20.5
q200 0 286 -157zM287 802l121 -31l-44 -178l-125 32z" />
    <glyph glyph-name="Ccaron" unicode="&#x10c;" horiz-adv-x="675" 
d="M523 344q-31 45 -70.5 68.5t-103.5 23.5q-74 0 -118.5 -43t-44.5 -117q0 -36 12 -65.5t33.5 -50.5t51.5 -32.5t66 -11.5q63 0 103.5 23t69.5 68l114 -64q-42 -79 -113.5 -118t-171.5 -39q-67 0 -124 20t-98.5 57.5t-65 91.5t-23.5 121t24 120.5t66 91t98.5 58t122.5 20.5
q200 0 286 -157zM334 705l91 58l58 -75l-149 -110l-150 110l60 75z" />
    <glyph glyph-name="Ccedilla" unicode="&#xc7;" horiz-adv-x="675" 
d="M523 344q-31 45 -70.5 68.5t-103.5 23.5q-74 0 -118.5 -43t-44.5 -117q0 -36 12 -65.5t33.5 -50.5t51.5 -32.5t66 -11.5q63 0 103.5 23t69.5 68l114 -64q-78 -142 -251 -156v-26q33 -3 54.5 -28t21.5 -64q0 -26 -11 -44.5t-30.5 -31t-45.5 -18.5t-55 -6q-15 0 -33.5 4
t-38.5 12l22 65q13 -5 30 -7t22 -2q19 0 32 5.5t13 22.5q0 24 -20 24h-45l-6 6l8 90q-57 6 -105.5 29t-83.5 60t-54.5 87t-19.5 111q0 67 24 120.5t66 91t98.5 58t122.5 20.5q200 0 286 -157z" />
    <glyph glyph-name="Ccircumflex" unicode="&#x108;" horiz-adv-x="675" 
d="M523 344q-31 45 -70.5 68.5t-103.5 23.5q-74 0 -118.5 -43t-44.5 -117q0 -36 12 -65.5t33.5 -50.5t51.5 -32.5t66 -11.5q63 0 103.5 23t69.5 68l114 -64q-42 -79 -113.5 -118t-171.5 -39q-67 0 -124 20t-98.5 57.5t-65 91.5t-23.5 121t24 120.5t66 91t98.5 58t122.5 20.5
q200 0 286 -157zM335 653l-92 -58l-57 75l149 110l150 -110l-60 -75z" />
    <glyph glyph-name="Cdotaccent" unicode="&#x10a;" horiz-adv-x="675" 
d="M523 344q-31 45 -70.5 68.5t-103.5 23.5q-74 0 -118.5 -43t-44.5 -117q0 -36 12 -65.5t33.5 -50.5t51.5 -32.5t66 -11.5q63 0 103.5 23t69.5 68l114 -64q-42 -79 -113.5 -118t-171.5 -39q-67 0 -124 20t-98.5 57.5t-65 91.5t-23.5 121t24 120.5t66 91t98.5 58t122.5 20.5
q200 0 286 -157zM335 754q30 0 52 -21.5t22 -51.5q0 -31 -22 -54.5t-52 -23.5q-31 0 -53 23.5t-22 54.5q0 30 22 51.5t53 21.5z" />
    <glyph glyph-name="Dcaron" unicode="&#x10e;" horiz-adv-x="676" 
d="M338 553q55 0 108.5 -20t95.5 -56.5t68 -87.5t26 -112t-25.5 -112t-67.5 -87.5t-95.5 -57t-109.5 -20.5h-291v553h291zM194 135h146q31 0 58 11t47.5 30t32 45t11.5 56t-11.5 56t-32 45.5t-47.5 30.5t-58 11h-146v-285zM304 705l91 58l58 -75l-149 -110l-150 110l60 75z
" />
    <glyph glyph-name="Dcroat" unicode="&#x110;" horiz-adv-x="709" 
d="M370 553q55 0 109 -20t96 -56.5t68 -87.5t26 -112t-25.5 -112t-67.5 -87.5t-96 -57t-110 -20.5h-291v217h-69v130h69v206h291zM227 347h123v-130h-123v-82h145q31 0 58 11t47.5 30t32 45t11.5 56t-11.5 56t-32 45.5t-47.5 30.5t-58 11h-145v-73z" />
    <glyph glyph-name="Eacute" unicode="&#xc9;" horiz-adv-x="610" 
d="M556 553v-133h-362v-73h325v-133h-325v-78h375v-136h-522v553h509zM269 802l121 -31l-44 -178l-125 32z" />
    <glyph glyph-name="Ebreve" unicode="&#x114;" horiz-adv-x="610" 
d="M556 553v-133h-362v-73h325v-133h-325v-78h375v-136h-522v553h509zM488 666q-26 -21 -48.5 -34t-43.5 -20t-41 -9t-42 -2t-42 2t-41 9t-43.5 20t-47.5 34l68 79q22 -16 45 -24t61 -8t61 8t46 24z" />
    <glyph glyph-name="Ecaron" unicode="&#x11a;" horiz-adv-x="610" 
d="M556 553v-133h-362v-73h325v-133h-325v-78h375v-136h-522v553h509zM315 705l91 58l58 -75l-149 -110l-150 110l60 75z" />
    <glyph glyph-name="Ecircumflex" unicode="&#xca;" horiz-adv-x="610" 
d="M556 553v-133h-362v-73h325v-133h-325v-78h375v-136h-522v553h509zM315 653l-92 -58l-57 75l149 110l150 -110l-60 -75z" />
    <glyph glyph-name="Edieresis" unicode="&#xcb;" horiz-adv-x="610" 
d="M556 553v-133h-362v-73h325v-133h-325v-78h375v-136h-522v553h509zM192 756q31 0 54.5 -22t23.5 -54q0 -16 -6.5 -30.5t-17 -25.5t-25 -17.5t-29.5 -6.5q-32 0 -55.5 24t-23.5 56t23.5 54t55.5 22zM429 756q31 0 55 -22t24 -54q0 -16 -6.5 -30.5t-17.5 -25.5t-25.5 -17.5
t-29.5 -6.5t-29 6.5t-24.5 17.5t-17 25.5t-6.5 30.5q0 32 23 54t54 22z" />
    <glyph glyph-name="Edotaccent" unicode="&#x116;" horiz-adv-x="610" 
d="M556 553v-133h-362v-73h325v-133h-325v-78h375v-136h-522v553h509zM317 754q30 0 52 -21.5t22 -51.5q0 -31 -22 -54.5t-52 -23.5q-31 0 -53 23.5t-22 54.5q0 30 22 51.5t53 21.5z" />
    <glyph glyph-name="Egrave" unicode="&#xc8;" horiz-adv-x="610" 
d="M556 553v-133h-362v-73h325v-133h-325v-78h375v-136h-522v553h509zM403 625l-124 -32l-45 178l121 31z" />
    <glyph glyph-name="Emacron" unicode="&#x112;" horiz-adv-x="610" 
d="M556 553v-133h-362v-73h325v-133h-325v-78h375v-136h-522v553h509zM501 719v-113h-388v113h388z" />
    <glyph glyph-name="Eogonek" unicode="&#x118;" horiz-adv-x="610" 
d="M556 553v-133h-362v-71h325v-134h-325v-79h375v-136q-25 -20 -31.5 -38.5t-6.5 -35.5q0 -21 6 -41t24 -41l-64 -55q-38 17 -58 48t-20 65q0 33 12 56.5t39 41.5h-423v553h509z" />
    <glyph glyph-name="Gbreve" unicode="&#x11e;" horiz-adv-x="695" 
d="M641 328v-328h-91l-18 35q-40 -24 -82.5 -36.5t-99.5 -12.5q-65 0 -121.5 20t-98.5 57.5t-66 91.5t-24 121t24 120.5t66 91t98.5 58t121.5 20.5q99 0 167 -36t117 -111l-117 -66q-16 21 -32 36t-35 24.5t-43.5 14t-57.5 4.5q-75 0 -119 -41t-44 -115q0 -75 43.5 -115.5
t119.5 -40.5q26 0 46.5 2t38.5 6.5t33.5 11t31.5 16.5v45l-136 5v122h278zM517 666q-26 -21 -48.5 -34t-43.5 -20t-41 -9t-42 -2t-42 2t-41 9t-43.5 20t-47.5 34l68 79q22 -16 45 -24t61 -8t61 8t46 24z" />
    <glyph glyph-name="Gcircumflex" unicode="&#x11c;" horiz-adv-x="695" 
d="M641 328v-328h-91l-18 35q-40 -24 -82.5 -36.5t-99.5 -12.5q-65 0 -121.5 20t-98.5 57.5t-66 91.5t-24 121t24 120.5t66 91t98.5 58t121.5 20.5q99 0 167 -36t117 -111l-117 -66q-16 21 -32 36t-35 24.5t-43.5 14t-57.5 4.5q-75 0 -119 -41t-44 -115q0 -75 43.5 -115.5
t119.5 -40.5q26 0 46.5 2t38.5 6.5t33.5 11t31.5 16.5v45l-136 5v122h278zM342 653l-92 -58l-57 75l149 110l150 -110l-60 -75z" />
    <glyph glyph-name="Gcommaaccent" unicode="&#x122;" horiz-adv-x="695" 
d="M641 328v-328h-91l-18 35q-40 -24 -82.5 -36.5t-99.5 -12.5q-65 0 -121.5 20t-98.5 57.5t-66 91.5t-24 121t24 120.5t66 91t98.5 58t121.5 20.5q99 0 167 -36t117 -111l-117 -66q-16 21 -32 36t-35 24.5t-43.5 14t-57.5 4.5q-75 0 -119 -41t-44 -115q0 -75 43.5 -115.5
t119.5 -40.5q26 0 46.5 2t38.5 6.5t33.5 11t31.5 16.5v45l-136 5v122h278zM347 -28q36 0 56 -25t20 -58q0 -5 -1 -13.5t-3 -16.5l-51 -133l-81 17l14 76q-18 11 -28 31t-10 40q0 16 6.5 31t18 26t27 18t32.5 7z" />
    <glyph glyph-name="Gdotaccent" unicode="&#x120;" horiz-adv-x="695" 
d="M641 328v-328h-91l-18 35q-40 -24 -82.5 -36.5t-99.5 -12.5q-65 0 -121.5 20t-98.5 57.5t-66 91.5t-24 121t24 120.5t66 91t98.5 58t121.5 20.5q99 0 167 -36t117 -111l-117 -66q-16 21 -32 36t-35 24.5t-43.5 14t-57.5 4.5q-75 0 -119 -41t-44 -115q0 -75 43.5 -115.5
t119.5 -40.5q26 0 46.5 2t38.5 6.5t33.5 11t31.5 16.5v45l-136 5v122h278zM346 754q30 0 52 -21.5t22 -51.5q0 -31 -22 -54.5t-52 -23.5q-31 0 -53 23.5t-22 54.5q0 30 22 51.5t53 21.5z" />
    <glyph glyph-name="Hbar" unicode="&#x126;" horiz-adv-x="646" 
d="M185 553v-57h276v57h138v-57h27v-113h-27v-383h-138v202h-276v-202h-138v383h-25v113h25v57h138zM461 343v40h-276v-40h276z" />
    <glyph glyph-name="Hcircumflex" unicode="&#x124;" horiz-adv-x="659" 
d="M194 553v-202h271v202h148v-553h-148v219h-271v-219h-147v553h147zM320 653l-92 -58l-57 75l149 110l150 -110l-60 -75z" />
    <glyph glyph-name="Iacute" unicode="&#xcd;" horiz-adv-x="241" 
d="M194 553v-553h-147v553h147zM85 802l121 -31l-44 -178l-125 32z" />
    <glyph glyph-name="Ibreve" unicode="&#x12c;" horiz-adv-x="241" 
d="M194 553v-553h-147v553h147zM308 666q-26 -21 -48.5 -34t-43.5 -20t-41 -9t-42 -2t-42 2t-41 9t-43.5 20t-47.5 34l68 79q22 -16 45 -24t61 -8t61 8t46 24z" />
    <glyph glyph-name="Icircumflex" unicode="&#xce;" horiz-adv-x="241" 
d="M194 553v-553h-147v553h147zM132 653l-92 -58l-57 75l149 110l150 -110l-60 -75z" />
    <glyph glyph-name="Idieresis" unicode="&#xcf;" horiz-adv-x="241" 
d="M194 553v-553h-147v553h147zM7 756q31 0 54.5 -22t23.5 -54q0 -16 -6.5 -30.5t-17 -25.5t-25 -17.5t-29.5 -6.5q-32 0 -55.5 24t-23.5 56t23.5 54t55.5 22zM244 756q31 0 55 -22t24 -54q0 -16 -6.5 -30.5t-17.5 -25.5t-25.5 -17.5t-29.5 -6.5t-29 6.5t-24.5 17.5
t-17 25.5t-6.5 30.5q0 32 23 54t54 22z" />
    <glyph glyph-name="Idotaccent" unicode="&#x130;" horiz-adv-x="241" 
d="M194 553v-553h-147v553h147zM132 754q30 0 52 -21.5t22 -51.5q0 -31 -22 -54.5t-52 -23.5q-31 0 -53 23.5t-22 54.5q0 30 22 51.5t53 21.5z" />
    <glyph glyph-name="Igrave" unicode="&#xcc;" horiz-adv-x="241" 
d="M194 553v-553h-147v553h147zM223 625l-124 -32l-45 178l121 31z" />
    <glyph glyph-name="Imacron" horiz-adv-x="241" 
d="M194 553v-553h-147v553h147zM316 719v-113h-388v113h388z" />
    <glyph glyph-name="Iogonek" unicode="&#x12e;" horiz-adv-x="241" 
d="M194 553v-553q-15 -20 -19.5 -38.5t-4.5 -35.5q0 -21 6 -41t24 -41l-64 -51q-38 17 -58 46t-20 63q0 33 12 55.5t47 42.5h-70v553h147z" />
    <glyph glyph-name="Itilde" unicode="&#x128;" horiz-adv-x="241" 
d="M194 553v-553h-147v553h147zM324 674q-40 -74 -118 -74q-24 0 -42.5 6t-34.5 13t-31.5 13t-34.5 6q-15 0 -31 -8t-30 -26l-66 64q25 45 59.5 65.5t74.5 20.5q26 0 44 -5.5t33 -12.5t28.5 -12.5t31.5 -5.5q19 0 35 7t26 18z" />
    <glyph glyph-name="Jcircumflex" unicode="&#x134;" horiz-adv-x="597" 
d="M551 553v-306q0 -52 -17 -99.5t-51.5 -83.5t-86.5 -57t-123 -21q-92 0 -159 44t-99 122l127 60q14 -44 50.5 -69.5t81.5 -25.5q37 0 62.5 10.5t41 29t22.5 44t7 56.5v296h144zM473 653l-92 -58l-57 75l149 110l150 -110l-60 -75z" />
    <glyph glyph-name="Kcommaaccent" unicode="&#x136;" horiz-adv-x="661" 
d="M193 553v-195h130l133 195h170l-178 -256l190 -297h-175l-136 223h-134v-223h-146v553h146zM312 9q36 0 56 -25t20 -58q0 -5 -1 -13.5t-3 -16.5l-51 -133l-81 17l14 76q-18 11 -28 31t-10 40q0 16 6.5 31t18 26t27 18t32.5 7z" />
    <glyph glyph-name="Lacute" unicode="&#x139;" horiz-adv-x="585" 
d="M194 553v-420h365v-133h-512v553h147zM123 812l121 -31l-44 -178l-125 32z" />
    <glyph glyph-name="Lcommaaccent" unicode="&#x13b;" horiz-adv-x="585" 
d="M194 553v-420h365v-133h-512v553h147zM315 -28q36 0 56 -25t20 -58q0 -5 -1 -13.5t-3 -16.5l-51 -133l-81 17l14 76q-18 11 -28 31t-10 40q0 16 6.5 31t18 26t27 18t32.5 7z" />
    <glyph glyph-name="Lcaron" unicode="&#x13d;" horiz-adv-x="585" 
d="M194 553v-420h365v-133h-512v553h147zM324 450q-18 10 -27 30t-9 40q0 33 25 56t61 23q29 0 53 -20.5t24 -59.5q0 -14 -7 -28l-59 -132l-81 16z" />
    <glyph glyph-name="Ldot" unicode="&#x13f;" horiz-adv-x="585" 
d="M194 553v-420h365v-133h-512v553h147zM310 395q19 0 36 -7.5t29.5 -20.5t20 -29.5t7.5 -35.5t-7.5 -35.5t-20 -29t-29.5 -20t-36 -7.5q-18 0 -34.5 7.5t-29 20t-20 29t-7.5 35.5t7.5 35.5t20 29.5t29 20.5t34.5 7.5z" />
    <glyph glyph-name="Lslash" unicode="&#x141;" horiz-adv-x="624" 
d="M11 319l74 33v201h148v-137l103 47l49 -111l-152 -69v-151h365v-132h-513v218l-24 -11z" />
    <glyph glyph-name="Nacute" unicode="&#x143;" horiz-adv-x="670" 
d="M181 553l296 -334v334h146v-553h-135l-296 334v-334h-145v553h134zM319 802l121 -31l-44 -178l-125 32z" />
    <glyph glyph-name="Ncaron" unicode="&#x147;" horiz-adv-x="670" 
d="M181 553l296 -334v334h146v-553h-135l-296 334v-334h-145v553h134zM348 705l91 58l58 -75l-149 -110l-150 110l60 75z" />
    <glyph glyph-name="Ncommaaccent" unicode="&#x145;" horiz-adv-x="670" 
d="M181 553l296 -334v334h146v-553h-135l-296 334v-334h-145v553h134zM339 5q36 0 56 -25t20 -58q0 -5 -1 -13.5t-3 -16.5l-51 -133l-81 17l14 76q-18 11 -28 31t-10 40q0 16 6.5 31t18 26t27 18t32.5 7z" />
    <glyph glyph-name="Ntilde" unicode="&#xd1;" horiz-adv-x="670" 
d="M181 553l296 -334v334h146v-553h-135l-296 334v-334h-145v553h134zM541 674q-40 -74 -118 -74q-24 0 -42.5 6t-34.5 13t-31.5 13t-34.5 6q-15 0 -31 -8t-30 -26l-66 64q25 45 59.5 65.5t74.5 20.5q26 0 44 -5.5t33 -12.5t28.5 -12.5t31.5 -5.5q19 0 35 7t26 18z" />
    <glyph glyph-name="Oacute" unicode="&#xd3;" 
d="M190 276q0 -38 12.5 -68.5t35 -52t52 -33t64.5 -11.5q34 0 64 11.5t52 33t34.5 52t12.5 68.5t-12.5 68.5t-34.5 52t-52 33t-64 11.5q-35 0 -64.5 -11.5t-52 -33t-35 -52t-12.5 -68.5zM665 276q0 -65 -25.5 -118.5t-68 -91.5t-99 -59t-118.5 -21t-118.5 21t-99 59
t-68 91.5t-25.5 118.5t25.5 118.5t68 91.5t99 59t118.5 21t118.5 -21t99 -59t68 -91.5t25.5 -118.5zM351 802l121 -31l-44 -178l-125 32z" />
    <glyph glyph-name="Obreve" unicode="&#x14e;" 
d="M190 276q0 -38 12.5 -68.5t35 -52t52 -33t64.5 -11.5q34 0 64 11.5t52 33t34.5 52t12.5 68.5t-12.5 68.5t-34.5 52t-52 33t-64 11.5q-35 0 -64.5 -11.5t-52 -33t-35 -52t-12.5 -68.5zM665 276q0 -65 -25.5 -118.5t-68 -91.5t-99 -59t-118.5 -21t-118.5 21t-99 59
t-68 91.5t-25.5 118.5t25.5 118.5t68 91.5t99 59t118.5 21t118.5 -21t99 -59t68 -91.5t25.5 -118.5zM528 666q-26 -21 -48.5 -34t-43.5 -20t-41 -9t-42 -2t-42 2t-41 9t-43.5 20t-47.5 34l68 79q22 -16 45 -24t61 -8t61 8t46 24z" />
    <glyph glyph-name="Ocircumflex" unicode="&#xd4;" 
d="M190 276q0 -38 12.5 -68.5t35 -52t52 -33t64.5 -11.5q34 0 64 11.5t52 33t34.5 52t12.5 68.5t-12.5 68.5t-34.5 52t-52 33t-64 11.5q-35 0 -64.5 -11.5t-52 -33t-35 -52t-12.5 -68.5zM665 276q0 -65 -25.5 -118.5t-68 -91.5t-99 -59t-118.5 -21t-118.5 21t-99 59
t-68 91.5t-25.5 118.5t25.5 118.5t68 91.5t99 59t118.5 21t118.5 -21t99 -59t68 -91.5t25.5 -118.5zM353 653l-92 -58l-57 75l149 110l150 -110l-60 -75z" />
    <glyph glyph-name="Odieresis" unicode="&#xd6;" 
d="M190 276q0 -38 12.5 -68.5t35 -52t52 -33t64.5 -11.5q34 0 64 11.5t52 33t34.5 52t12.5 68.5t-12.5 68.5t-34.5 52t-52 33t-64 11.5q-35 0 -64.5 -11.5t-52 -33t-35 -52t-12.5 -68.5zM665 276q0 -65 -25.5 -118.5t-68 -91.5t-99 -59t-118.5 -21t-118.5 21t-99 59
t-68 91.5t-25.5 118.5t25.5 118.5t68 91.5t99 59t118.5 21t118.5 -21t99 -59t68 -91.5t25.5 -118.5zM235 756q31 0 54.5 -22t23.5 -54q0 -16 -6.5 -30.5t-17 -25.5t-25 -17.5t-29.5 -6.5q-32 0 -55.5 24t-23.5 56t23.5 54t55.5 22zM472 756q31 0 55 -22t24 -54
q0 -16 -6.5 -30.5t-17.5 -25.5t-25.5 -17.5t-29.5 -6.5t-29 6.5t-24.5 17.5t-17 25.5t-6.5 30.5q0 32 23 54t54 22z" />
    <glyph glyph-name="Ograve" unicode="&#xd2;" 
d="M190 276q0 -38 12.5 -68.5t35 -52t52 -33t64.5 -11.5q34 0 64 11.5t52 33t34.5 52t12.5 68.5t-12.5 68.5t-34.5 52t-52 33t-64 11.5q-35 0 -64.5 -11.5t-52 -33t-35 -52t-12.5 -68.5zM665 276q0 -65 -25.5 -118.5t-68 -91.5t-99 -59t-118.5 -21t-118.5 21t-99 59
t-68 91.5t-25.5 118.5t25.5 118.5t68 91.5t99 59t118.5 21t118.5 -21t99 -59t68 -91.5t25.5 -118.5zM415 625l-124 -32l-45 178l121 31z" />
    <glyph glyph-name="Ohungarumlaut" unicode="&#x150;" 
d="M190 276q0 -38 12.5 -68.5t35 -52t52 -33t64.5 -11.5q34 0 64 11.5t52 33t34.5 52t12.5 68.5t-12.5 68.5t-34.5 52t-52 33t-64 11.5q-35 0 -64.5 -11.5t-52 -33t-35 -52t-12.5 -68.5zM665 276q0 -65 -25.5 -118.5t-68 -91.5t-99 -59t-118.5 -21t-118.5 21t-99 59
t-68 91.5t-25.5 118.5t25.5 118.5t68 91.5t99 59t118.5 21t118.5 -21t99 -59t68 -91.5t25.5 -118.5zM246 802l121 -31l-46 -178l-125 32zM412 802l121 -31l-43 -178l-125 32z" />
    <glyph glyph-name="Omacron" unicode="&#x14c;" 
d="M190 276q0 -38 12.5 -68.5t35 -52t52 -33t64.5 -11.5q34 0 64 11.5t52 33t34.5 52t12.5 68.5t-12.5 68.5t-34.5 52t-52 33t-64 11.5q-35 0 -64.5 -11.5t-52 -33t-35 -52t-12.5 -68.5zM665 276q0 -65 -25.5 -118.5t-68 -91.5t-99 -59t-118.5 -21t-118.5 21t-99 59
t-68 91.5t-25.5 118.5t25.5 118.5t68 91.5t99 59t118.5 21t118.5 -21t99 -59t68 -91.5t25.5 -118.5zM548 719v-113h-388v113h388z" />
    <glyph glyph-name="Oslash" unicode="&#xd8;" 
d="M581 534l-23 -37q48 -38 77.5 -94t29.5 -126q0 -65 -25.5 -118t-68 -91t-99 -58.5t-118.5 -20.5q-45 0 -91 11l-27 -44l-108 58l23 40q-49 39 -78.5 95.5t-29.5 127.5q0 65 25.5 118.5t68 91.5t99 58.5t118.5 20.5q23 0 45.5 -3t45.5 -10l22 39zM378 441h-24
q-35 0 -64.5 -11.5t-52 -32.5t-35 -51.5t-12.5 -68.5q0 -63 30 -106zM329 113q7 0 13 0.5t12 0.5q34 0 64 11.5t52 32.5t34.5 51t12.5 68q0 59 -28 103z" />
    <glyph glyph-name="Oslashacute" unicode="&#x1fe;" 
d="M581 534l-23 -37q48 -38 77.5 -94t29.5 -126q0 -65 -25.5 -118t-68 -91t-99 -58.5t-118.5 -20.5q-45 0 -91 11l-27 -44l-108 58l23 40q-49 39 -78.5 95.5t-29.5 127.5q0 65 25.5 118.5t68 91.5t99 58.5t118.5 20.5q23 0 45.5 -3t45.5 -10l22 39zM378 441h-24
q-35 0 -64.5 -11.5t-52 -32.5t-35 -51.5t-12.5 -68.5q0 -63 30 -106zM329 113q7 0 13 0.5t12 0.5q34 0 64 11.5t52 32.5t34.5 51t12.5 68q0 59 -28 103zM339 802l121 -31l-44 -178l-125 32z" />
    <glyph glyph-name="Otilde" unicode="&#xd5;" 
d="M190 276q0 -38 12.5 -68.5t35 -52t52 -33t64.5 -11.5q34 0 64 11.5t52 33t34.5 52t12.5 68.5t-12.5 68.5t-34.5 52t-52 33t-64 11.5q-35 0 -64.5 -11.5t-52 -33t-35 -52t-12.5 -68.5zM665 276q0 -65 -25.5 -118.5t-68 -91.5t-99 -59t-118.5 -21t-118.5 21t-99 59
t-68 91.5t-25.5 118.5t25.5 118.5t68 91.5t99 59t118.5 21t118.5 -21t99 -59t68 -91.5t25.5 -118.5zM548 674q-40 -74 -118 -74q-24 0 -42.5 6t-34.5 13t-31.5 13t-34.5 6q-15 0 -31 -8t-30 -26l-66 64q25 45 59.5 65.5t74.5 20.5q26 0 44 -5.5t33 -12.5t28.5 -12.5
t31.5 -5.5q19 0 35 7t26 18z" />
    <glyph glyph-name="OE" unicode="&#x152;" horiz-adv-x="1076" 
d="M1018 553v-133h-347v-71h311v-134h-311v-79h361v-136h-503v20q-37 -19 -79 -26.5t-93 -7.5q-70 0 -124 18t-96 57q-94 88 -94 216q0 69 23.5 119.5t70.5 94.5q42 39 96 57t124 18q53 0 94 -8.5t78 -25.5v21h489zM190 276q0 -74 38 -118q41 -47 129 -47t130 47
q38 44 38 119q0 73 -38 117q-42 47 -130 47t-129 -47q-18 -21 -28 -51t-10 -67z" />
    <glyph glyph-name="Racute" unicode="&#x154;" horiz-adv-x="633" 
d="M374 553q50 0 92.5 -16t73 -45t48 -69.5t17.5 -89.5q0 -62 -26.5 -108t-73.5 -74l84 -151h-160l-63 118h-172v-118h-147v553h327zM194 252h174q39 0 64 20t25 61q0 40 -25 63t-64 23h-174v-167zM280 802l121 -31l-44 -178l-125 32z" />
    <glyph glyph-name="Rcaron" unicode="&#x158;" horiz-adv-x="633" 
d="M374 553q50 0 92.5 -16t73 -45t48 -69.5t17.5 -89.5q0 -62 -26.5 -108t-73.5 -74l84 -151h-160l-63 118h-172v-118h-147v553h327zM194 252h174q39 0 64 20t25 61q0 40 -25 63t-64 23h-174v-167zM325 705l91 58l58 -75l-149 -110l-150 110l60 75z" />
    <glyph glyph-name="Rcommaaccent" unicode="&#x156;" horiz-adv-x="633" 
d="M374 553q50 0 92.5 -16t73 -45t48 -69.5t17.5 -89.5q0 -62 -26.5 -108t-73.5 -74l84 -151h-160l-63 118h-172v-118h-147v553h327zM194 252h174q39 0 64 20t25 61q0 40 -25 63t-64 23h-174v-167zM328 11q36 0 56 -25t20 -58q0 -5 -1 -13.5t-3 -16.5l-51 -133l-81 17l14 76
q-18 11 -28 31t-10 40q0 16 6.5 31t18 26t27 18t32.5 7z" />
    <glyph glyph-name="Scaron" unicode="&#x160;" horiz-adv-x="660" 
d="M538 370q-48 35 -100 50t-117 15q-35 0 -57.5 -3.5t-35.5 -10t-17.5 -14.5t-4.5 -17q0 -17 16 -22.5t41 -8.5l161 -18q91 -11 144 -51t53 -120q0 -48 -22.5 -82.5t-61.5 -57t-92.5 -33.5t-115.5 -11q-86 0 -155 21t-137 73l69 114q57 -40 114.5 -60t121.5 -20
q57 0 96.5 13t39.5 41q0 14 -7 22t-33 10l-190 22q-88 10 -137.5 48.5t-49.5 118.5q0 45 20.5 78.5t56 55.5t82.5 32.5t101 10.5q80 0 151 -18.5t137 -69.5zM337 705l91 58l58 -75l-149 -110l-150 110l60 75z" />
    <glyph glyph-name="Scedilla" unicode="&#x15e;" horiz-adv-x="660" 
d="M538 370q-48 35 -100 50t-117 15q-35 0 -57.5 -3.5t-35.5 -10t-17.5 -14.5t-4.5 -17q0 -17 16 -22.5t41 -8.5l161 -18q91 -11 144 -51t53 -120q0 -46 -20.5 -80t-57.5 -56.5t-87 -34.5t-108 -13v-22q32 -3 54 -28t22 -64q0 -26 -11 -45t-30.5 -31t-45.5 -18t-56 -6
q-14 0 -32.5 4t-38.5 12l21 64q13 -5 30 -6.5t22 -1.5q20 0 32.5 5.5t12.5 22.5q0 23 -19 23h-45l-6 6l8 89q-65 5 -119.5 26.5t-109.5 63.5l69 114q57 -41 114.5 -60.5t121.5 -19.5q57 0 96.5 13t39.5 41q0 14 -7 22t-33 10l-190 22q-88 10 -137.5 48.5t-49.5 118.5
q0 45 20.5 78.5t56 55.5t82.5 32.5t101 10.5q80 0 151 -18.5t137 -69.5z" />
    <glyph glyph-name="Scircumflex" unicode="&#x15c;" horiz-adv-x="660" 
d="M538 370q-48 35 -100 50t-117 15q-35 0 -57.5 -3.5t-35.5 -10t-17.5 -14.5t-4.5 -17q0 -17 16 -22.5t41 -8.5l161 -18q91 -11 144 -51t53 -120q0 -48 -22.5 -82.5t-61.5 -57t-92.5 -33.5t-115.5 -11q-86 0 -155 21t-137 73l69 114q57 -40 114.5 -60t121.5 -20
q57 0 96.5 13t39.5 41q0 14 -7 22t-33 10l-190 22q-88 10 -137.5 48.5t-49.5 118.5q0 45 20.5 78.5t56 55.5t82.5 32.5t101 10.5q80 0 151 -18.5t137 -69.5zM316 653l-92 -58l-57 75l149 110l150 -110l-60 -75z" />
    <glyph glyph-name="Scommaaccent" unicode="&#x218;" horiz-adv-x="660" 
d="M538 370q-48 35 -100 50t-117 15q-35 0 -57.5 -3.5t-35.5 -10t-17.5 -14.5t-4.5 -17q0 -17 16 -22.5t41 -8.5l161 -18q91 -11 144 -51t53 -120q0 -48 -22.5 -82.5t-61.5 -57t-92.5 -33.5t-115.5 -11q-86 0 -155 21t-137 73l69 114q57 -40 114.5 -60t121.5 -20
q57 0 96.5 13t39.5 41q0 14 -7 22t-33 10l-190 22q-88 10 -137.5 48.5t-49.5 118.5q0 45 20.5 78.5t56 55.5t82.5 32.5t101 10.5q80 0 151 -18.5t137 -69.5zM320 -31q36 0 56 -25t20 -58q0 -5 -1 -13.5t-3 -16.5l-51 -133l-81 17l14 76q-18 11 -28 31t-10 40q0 16 6.5 31
t18 26t27 18t32.5 7z" />
    <glyph glyph-name="Tbar" unicode="&#x166;" horiz-adv-x="638" 
d="M608 553v-132h-215v-81h103v-114h-103v-226h-148v226h-103v114h103v81h-215v132h578z" />
    <glyph glyph-name="Tcaron" unicode="&#x164;" horiz-adv-x="638" 
d="M608 553v-132h-215v-421h-148v421h-215v132h578zM315 705l91 58l58 -75l-149 -110l-150 110l60 75z" />
    <glyph glyph-name="Tcommaaccent" unicode="&#x162;" horiz-adv-x="638" 
d="M608 553v-132h-215v-421h-148v421h-215v132h578zM318 -31q36 0 56 -25t20 -58q0 -5 -1 -13.5t-3 -16.5l-51 -133l-81 17l14 76q-18 11 -28 31t-10 40q0 16 6.5 31t18 26t27 18t32.5 7z" />
    <glyph glyph-name="Uacute" unicode="&#xda;" horiz-adv-x="653" 
d="M189 553v-283q0 -74 33 -114.5t105 -40.5q71 0 104 40.5t33 114.5v283h148v-282q0 -69 -20 -122t-57 -89t-90 -55t-118 -19t-118 19t-90 55t-57 89t-20 122v282h147zM322 802l121 -31l-44 -178l-125 32z" />
    <glyph glyph-name="Ubreve" unicode="&#x16c;" horiz-adv-x="653" 
d="M189 553v-283q0 -74 33 -114.5t105 -40.5q71 0 104 40.5t33 114.5v283h148v-282q0 -69 -20 -122t-57 -89t-90 -55t-118 -19t-118 19t-90 55t-57 89t-20 122v282h147zM501 666q-26 -21 -48.5 -34t-43.5 -20t-41 -9t-42 -2t-42 2t-41 9t-43.5 20t-47.5 34l68 79
q22 -16 45 -24t61 -8t61 8t46 24z" />
    <glyph glyph-name="Ucircumflex" unicode="&#xdb;" horiz-adv-x="653" 
d="M189 553v-283q0 -74 33 -114.5t105 -40.5q71 0 104 40.5t33 114.5v283h148v-282q0 -69 -20 -122t-57 -89t-90 -55t-118 -19t-118 19t-90 55t-57 89t-20 122v282h147zM329 653l-92 -58l-57 75l149 110l150 -110l-60 -75z" />
    <glyph glyph-name="Udieresis" unicode="&#xdc;" horiz-adv-x="653" 
d="M189 553v-283q0 -74 33 -114.5t105 -40.5q71 0 104 40.5t33 114.5v283h148v-282q0 -69 -20 -122t-57 -89t-90 -55t-118 -19t-118 19t-90 55t-57 89t-20 122v282h147zM208 756q31 0 54.5 -22t23.5 -54q0 -16 -6.5 -30.5t-17 -25.5t-25 -17.5t-29.5 -6.5q-32 0 -55.5 24
t-23.5 56t23.5 54t55.5 22zM445 756q31 0 55 -22t24 -54q0 -16 -6.5 -30.5t-17.5 -25.5t-25.5 -17.5t-29.5 -6.5t-29 6.5t-24.5 17.5t-17 25.5t-6.5 30.5q0 32 23 54t54 22z" />
    <glyph glyph-name="Ugrave" unicode="&#xd9;" horiz-adv-x="653" 
d="M189 553v-283q0 -74 33 -114.5t105 -40.5q71 0 104 40.5t33 114.5v283h148v-282q0 -69 -20 -122t-57 -89t-90 -55t-118 -19t-118 19t-90 55t-57 89t-20 122v282h147zM383 625l-124 -32l-45 178l121 31z" />
    <glyph glyph-name="Uhungarumlaut" unicode="&#x170;" horiz-adv-x="653" 
d="M189 553v-283q0 -74 33 -114.5t105 -40.5q71 0 104 40.5t33 114.5v283h148v-282q0 -69 -20 -122t-57 -89t-90 -55t-118 -19t-118 19t-90 55t-57 89t-20 122v282h147zM211 802l121 -31l-46 -178l-125 32zM377 802l121 -31l-43 -178l-125 32z" />
    <glyph glyph-name="Umacron" unicode="&#x16a;" horiz-adv-x="653" 
d="M189 553v-283q0 -74 33 -114.5t105 -40.5q71 0 104 40.5t33 114.5v283h148v-282q0 -69 -20 -122t-57 -89t-90 -55t-118 -19t-118 19t-90 55t-57 89t-20 122v282h147zM520 719v-113h-388v113h388z" />
    <glyph glyph-name="Uogonek" unicode="&#x172;" horiz-adv-x="653" 
d="M189 553v-283q0 -74 33 -114.5t105 -40.5q71 0 104 40.5t33 114.5v283h148v-282q0 -121 -60 -192.5t-164 -88.5q-11 -17 -14 -32.5t-3 -31.5q0 -21 6 -41t24 -41l-64 -51q-38 17 -58 46t-20 63q0 28 7 48t24 38q-115 9 -181.5 82t-66.5 201v282h147z" />
    <glyph glyph-name="Uring" unicode="&#x16e;" horiz-adv-x="653" 
d="M189 553v-283q0 -74 33 -114.5t105 -40.5q71 0 104 40.5t33 114.5v283h148v-282q0 -69 -20 -122t-57 -89t-90 -55t-118 -19t-118 19t-90 55t-57 89t-20 122v282h147zM463 719q0 -29 -10.5 -52.5t-28.5 -40t-42 -25.5t-50 -9t-50 9t-42 25.5t-28.5 40t-10.5 52.5
q0 28 10.5 52t28.5 40.5t42 26t50 9.5t50 -9.5t42 -26t28.5 -40.5t10.5 -52zM296 719q0 -23 9.5 -30.5t26.5 -7.5t26.5 7.5t9.5 30.5q0 22 -9.5 30.5t-26.5 8.5t-26.5 -8.5t-9.5 -30.5z" />
    <glyph glyph-name="Utilde" unicode="&#x168;" horiz-adv-x="653" 
d="M189 553v-283q0 -74 33 -114.5t105 -40.5q71 0 104 40.5t33 114.5v283h148v-282q0 -69 -20 -122t-57 -89t-90 -55t-118 -19t-118 19t-90 55t-57 89t-20 122v282h147zM507 674q-40 -74 -118 -74q-24 0 -42.5 6t-34.5 13t-31.5 13t-34.5 6q-15 0 -31 -8t-30 -26l-66 64
q25 45 59.5 65.5t74.5 20.5q26 0 44 -5.5t33 -12.5t28.5 -12.5t31.5 -5.5q19 0 35 7t26 18z" />
    <glyph glyph-name="Wacute" unicode="&#x1e82;" horiz-adv-x="1017" 
d="M186 553l127 -428h4l108 428h167l107 -428h4l131 428h155l-201 -553h-191l-91 387l-95 -387h-188l-193 553h156zM487 802l121 -31l-44 -178l-125 32z" />
    <glyph glyph-name="Wcircumflex" unicode="&#x174;" horiz-adv-x="1017" 
d="M186 553l127 -428h4l108 428h167l107 -428h4l131 428h155l-201 -553h-191l-91 387l-95 -387h-188l-193 553h156zM508 653l-92 -58l-57 75l149 110l150 -110l-60 -75z" />
    <glyph glyph-name="Wdieresis" unicode="&#x1e84;" horiz-adv-x="1017" 
d="M186 553l127 -428h4l108 428h167l107 -428h4l131 428h155l-201 -553h-191l-91 387l-95 -387h-188l-193 553h156zM390 756q31 0 54.5 -22t23.5 -54q0 -16 -6.5 -30.5t-17 -25.5t-25 -17.5t-29.5 -6.5q-32 0 -55.5 24t-23.5 56t23.5 54t55.5 22zM627 756q31 0 55 -22
t24 -54q0 -16 -6.5 -30.5t-17.5 -25.5t-25.5 -17.5t-29.5 -6.5t-29 6.5t-24.5 17.5t-17 25.5t-6.5 30.5q0 32 23 54t54 22z" />
    <glyph glyph-name="Wgrave" unicode="&#x1e80;" horiz-adv-x="1017" 
d="M186 553l127 -428h4l108 428h167l107 -428h4l131 428h155l-201 -553h-191l-91 387l-95 -387h-188l-193 553h156zM579 625l-124 -32l-45 178l121 31z" />
    <glyph glyph-name="Yacute" unicode="&#xdd;" horiz-adv-x="717" 
d="M199 553l161 -277h4l154 277h169l-257 -415v-138h-145v138l-255 415h169zM347 802l121 -31l-44 -178l-125 32z" />
    <glyph glyph-name="Ycircumflex" unicode="&#x176;" horiz-adv-x="717" 
d="M199 553l161 -277h4l154 277h169l-257 -415v-138h-145v138l-255 415h169zM368 653l-92 -58l-57 75l149 110l150 -110l-60 -75z" />
    <glyph glyph-name="Ydieresis" unicode="&#x178;" horiz-adv-x="717" 
d="M199 553l161 -277h4l154 277h169l-257 -415v-138h-145v138l-255 415h169zM239 756q31 0 54.5 -22t23.5 -54q0 -16 -6.5 -30.5t-17 -25.5t-25 -17.5t-29.5 -6.5q-32 0 -55.5 24t-23.5 56t23.5 54t55.5 22zM476 756q31 0 55 -22t24 -54q0 -16 -6.5 -30.5t-17.5 -25.5
t-25.5 -17.5t-29.5 -6.5t-29 6.5t-24.5 17.5t-17 25.5t-6.5 30.5q0 32 23 54t54 22z" />
    <glyph glyph-name="Ygrave" unicode="&#x1ef2;" horiz-adv-x="717" 
d="M199 553l161 -277h4l154 277h169l-257 -415v-138h-145v138l-255 415h169zM420 625l-124 -32l-45 178l121 31z" />
    <glyph glyph-name="Zacute" unicode="&#x179;" horiz-adv-x="614" 
d="M572 553v-124l-341 -303l125 4h218v-130h-534v128l349 299l-125 -4h-215v130h523zM261 802l121 -31l-44 -178l-125 32z" />
    <glyph glyph-name="Zcaron" unicode="&#x17d;" horiz-adv-x="614" 
d="M572 553v-124l-341 -303l125 4h218v-130h-534v128l349 299l-125 -4h-215v130h523zM308 705l91 58l58 -75l-149 -110l-150 110l60 75z" />
    <glyph glyph-name="Zdotaccent" unicode="&#x17b;" horiz-adv-x="614" 
d="M572 553v-124l-341 -303l125 4h218v-130h-534v128l349 299l-125 -4h-215v130h523zM308 754q30 0 52 -21.5t22 -51.5q0 -31 -22 -54.5t-52 -23.5q-31 0 -53 23.5t-22 54.5q0 30 22 51.5t53 21.5z" />
    <glyph glyph-name="aacute" unicode="&#xe1;" horiz-adv-x="743" 
d="M273 209h195l-84 213h-23zM481 553l235 -553h-156l-35 81h-306l-34 -81h-158l240 553h214zM363 803l121 -31l-44 -178l-125 32z" />
    <glyph glyph-name="abreve" unicode="&#x103;" horiz-adv-x="743" 
d="M273 209h195l-84 213h-23zM481 553l235 -553h-156l-35 81h-306l-34 -81h-158l240 553h214zM545 661q-26 -21 -48.5 -34t-43.5 -20t-41 -9t-42 -2t-42 2t-41 9t-43.5 20t-47.5 34l68 79q22 -16 45 -24t61 -8t61 8t46 24z" />
    <glyph glyph-name="acircumflex" unicode="&#xe2;" horiz-adv-x="743" 
d="M273 209h195l-84 213h-23zM481 553l235 -553h-156l-35 81h-306l-34 -81h-158l240 553h214zM371 653l-92 -58l-57 75l149 110l150 -110l-60 -75z" />
    <glyph glyph-name="adieresis" unicode="&#xe4;" horiz-adv-x="743" 
d="M273 209h195l-84 213h-23zM481 553l235 -553h-156l-35 81h-306l-34 -81h-158l240 553h214zM252 756q31 0 54.5 -22t23.5 -54q0 -16 -6.5 -30.5t-17 -25.5t-25 -17.5t-29.5 -6.5q-32 0 -55.5 24t-23.5 56t23.5 54t55.5 22zM489 756q31 0 55 -22t24 -54q0 -16 -6.5 -30.5
t-17.5 -25.5t-25.5 -17.5t-29.5 -6.5t-29 6.5t-24.5 17.5t-17 25.5t-6.5 30.5q0 32 23 54t54 22z" />
    <glyph glyph-name="agrave" unicode="&#xe0;" horiz-adv-x="743" 
d="M273 209h195l-84 213h-23zM481 553l235 -553h-156l-35 81h-306l-34 -81h-158l240 553h214zM435 625l-124 -32l-45 178l121 31z" />
    <glyph glyph-name="amacron" unicode="&#x101;" horiz-adv-x="743" 
d="M273 209h195l-84 213h-23zM481 553l235 -553h-156l-35 81h-306l-34 -81h-158l240 553h214zM579 719v-113h-388v113h388z" />
    <glyph glyph-name="aogonek" unicode="&#x105;" horiz-adv-x="743" 
d="M480 553l236 -553q-14 -21 -18.5 -39t-4.5 -35q0 -21 6 -41t24 -41l-64 -51q-38 17 -58 46t-20 63q0 33 10.5 55.5t35.5 42.5h-63l-35 81h-312l-35 -81h-155l243 553h210zM271 206h201l-83 212h-34z" />
    <glyph glyph-name="aring" unicode="&#xe5;" horiz-adv-x="743" 
d="M273 209h195l-84 213h-23zM481 553l235 -553h-156l-35 81h-306l-34 -81h-158l240 553h214zM501 719q0 -29 -10.5 -52.5t-28.5 -40t-42 -25.5t-50 -9t-50 9t-42 25.5t-28.5 40t-10.5 52.5q0 28 10.5 52t28.5 40.5t42 26t50 9.5t50 -9.5t42 -26t28.5 -40.5t10.5 -52z
M334 719q0 -23 9.5 -30.5t26.5 -7.5t26.5 7.5t9.5 30.5q0 22 -9.5 30.5t-26.5 8.5t-26.5 -8.5t-9.5 -30.5z" />
    <glyph glyph-name="atilde" unicode="&#xe3;" horiz-adv-x="743" 
d="M273 209h195l-84 213h-23zM481 553l235 -553h-156l-35 81h-306l-34 -81h-158l240 553h214zM565 674q-40 -74 -118 -74q-24 0 -42.5 6t-34.5 13t-31.5 13t-34.5 6q-15 0 -31 -8t-30 -26l-66 64q25 45 59.5 65.5t74.5 20.5q26 0 44 -5.5t33 -12.5t28.5 -12.5t31.5 -5.5
q19 0 35 7t26 18z" />
    <glyph glyph-name="ae" unicode="&#xe6;" horiz-adv-x="1083" 
d="M1028 553v-131h-374v-73h338v-130h-338v-83h392v-136h-540v92h-258l-65 -92h-174l376 553h643zM339 224h167v198h-49z" />
    <glyph glyph-name="aeacute" unicode="&#x1fd;" horiz-adv-x="1083" 
d="M1028 553v-131h-374v-73h338v-130h-338v-83h392v-136h-540v92h-258l-65 -92h-174l376 553h643zM339 224h167v198h-49zM546 802l121 -31l-44 -178l-125 32z" />
    <glyph glyph-name="cacute" unicode="&#x107;" horiz-adv-x="675" 
d="M523 344q-31 45 -70.5 68.5t-103.5 23.5q-74 0 -118.5 -43t-44.5 -117q0 -36 12 -65.5t33.5 -50.5t51.5 -32.5t66 -11.5q63 0 103.5 23t69.5 68l114 -64q-42 -79 -113.5 -118t-171.5 -39q-67 0 -124 20t-98.5 57.5t-65 91.5t-23.5 121t24 120.5t66 91t98.5 58t122.5 20.5
q200 0 286 -157zM358 802l121 -31l-44 -178l-125 32z" />
    <glyph glyph-name="ccaron" unicode="&#x10d;" horiz-adv-x="675" 
d="M523 344q-31 45 -70.5 68.5t-103.5 23.5q-74 0 -118.5 -43t-44.5 -117q0 -36 12 -65.5t33.5 -50.5t51.5 -32.5t66 -11.5q63 0 103.5 23t69.5 68l114 -64q-42 -79 -113.5 -118t-171.5 -39q-67 0 -124 20t-98.5 57.5t-65 91.5t-23.5 121t24 120.5t66 91t98.5 58t122.5 20.5
q200 0 286 -157zM358 705l91 58l58 -75l-149 -110l-150 110l60 75z" />
    <glyph glyph-name="ccircumflex" unicode="&#x109;" horiz-adv-x="675" 
d="M523 344q-31 45 -70.5 68.5t-103.5 23.5q-74 0 -118.5 -43t-44.5 -117q0 -36 12 -65.5t33.5 -50.5t51.5 -32.5t66 -11.5q63 0 103.5 23t69.5 68l114 -64q-42 -79 -113.5 -118t-171.5 -39q-67 0 -124 20t-98.5 57.5t-65 91.5t-23.5 121t24 120.5t66 91t98.5 58t122.5 20.5
q200 0 286 -157zM353 653l-92 -58l-57 75l149 110l150 -110l-60 -75z" />
    <glyph glyph-name="ccedilla" unicode="&#xe7;" horiz-adv-x="675" 
d="M523 344q-31 45 -70.5 68.5t-103.5 23.5q-74 0 -118.5 -43t-44.5 -117q0 -36 12 -65.5t33.5 -50.5t51.5 -32.5t66 -11.5q63 0 103.5 23t69.5 68l114 -64q-78 -142 -251 -156v-26q33 -3 54.5 -28t21.5 -64q0 -26 -11 -44.5t-30.5 -31t-45.5 -18.5t-55 -6q-15 0 -33.5 4
t-38.5 12l22 65q13 -5 30 -7t22 -2q19 0 32 5.5t13 22.5q0 24 -20 24h-45l-6 6l8 90q-57 6 -105.5 29t-83.5 60t-54.5 87t-19.5 111q0 67 24 120.5t66 91t98.5 58t122.5 20.5q200 0 286 -157z" />
    <glyph glyph-name="cdotaccent" unicode="&#x10b;" horiz-adv-x="675" 
d="M523 344q-31 45 -70.5 68.5t-103.5 23.5q-74 0 -118.5 -43t-44.5 -117q0 -36 12 -65.5t33.5 -50.5t51.5 -32.5t66 -11.5q63 0 103.5 23t69.5 68l114 -64q-42 -79 -113.5 -118t-171.5 -39q-67 0 -124 20t-98.5 57.5t-65 91.5t-23.5 121t24 120.5t66 91t98.5 58t122.5 20.5
q200 0 286 -157zM357 754q30 0 52 -21.5t22 -51.5q0 -31 -22 -54.5t-52 -23.5q-31 0 -53 23.5t-22 54.5q0 30 22 51.5t53 21.5z" />
    <glyph glyph-name="dcaron" unicode="&#x10f;" horiz-adv-x="676" 
d="M338 553q55 0 108.5 -20t95.5 -56.5t68 -87.5t26 -112t-25.5 -112t-67.5 -87.5t-95.5 -57t-109.5 -20.5h-291v553h291zM194 135h146q31 0 58 11t47.5 30t32 45t11.5 56t-11.5 56t-32 45.5t-47.5 30.5t-58 11h-146v-285zM304 705l91 58l58 -75l-149 -110l-150 110l60 75z
" />
    <glyph glyph-name="dcroat" unicode="&#x111;" horiz-adv-x="709" 
d="M370 553q55 0 109 -20t96 -56.5t68 -87.5t26 -112t-25.5 -112t-67.5 -87.5t-96 -57t-110 -20.5h-291v217h-69v130h69v206h291zM227 347h123v-130h-123v-82h145q31 0 58 11t47.5 30t32 45t11.5 56t-11.5 56t-32 45.5t-47.5 30.5t-58 11h-145v-73z" />
    <glyph glyph-name="e" unicode="e" horiz-adv-x="610" 
d="M556 553v-133h-362v-73h325v-133h-325v-78h375v-136h-522v553h509z" />
    <glyph glyph-name="eacute" unicode="&#xe9;" horiz-adv-x="610" 
d="M556 553v-133h-362v-73h325v-133h-325v-78h375v-136h-522v553h509zM290 802l121 -31l-44 -178l-125 32z" />
    <glyph glyph-name="ebreve" unicode="&#x115;" horiz-adv-x="610" 
d="M556 553v-133h-362v-73h325v-133h-325v-78h375v-136h-522v553h509zM472 666q-26 -21 -48.5 -34t-43.5 -20t-41 -9t-42 -2t-42 2t-41 9t-43.5 20t-47.5 34l68 79q22 -16 45 -24t61 -8t61 8t46 24z" />
    <glyph glyph-name="ecaron" unicode="&#x11b;" horiz-adv-x="610" 
d="M556 553v-133h-362v-73h325v-133h-325v-78h375v-136h-522v553h509zM315 705l91 58l58 -75l-149 -110l-150 110l60 75z" />
    <glyph glyph-name="ecircumflex" unicode="&#xea;" horiz-adv-x="610" 
d="M556 553v-133h-362v-73h325v-133h-325v-78h375v-136h-522v553h509zM315 653l-92 -58l-57 75l149 110l150 -110l-60 -75z" />
    <glyph glyph-name="edieresis" unicode="&#xeb;" horiz-adv-x="610" 
d="M556 553v-133h-362v-73h325v-133h-325v-78h375v-136h-522v553h509zM192 756q31 0 54.5 -22t23.5 -54q0 -16 -6.5 -30.5t-17 -25.5t-25 -17.5t-29.5 -6.5q-32 0 -55.5 24t-23.5 56t23.5 54t55.5 22zM429 756q31 0 55 -22t24 -54q0 -16 -6.5 -30.5t-17.5 -25.5t-25.5 -17.5
t-29.5 -6.5t-29 6.5t-24.5 17.5t-17 25.5t-6.5 30.5q0 32 23 54t54 22z" />
    <glyph glyph-name="edotaccent" unicode="&#x117;" horiz-adv-x="610" 
d="M556 553v-133h-362v-73h325v-133h-325v-78h375v-136h-522v553h509zM317 754q30 0 52 -21.5t22 -51.5q0 -31 -22 -54.5t-52 -23.5q-31 0 -53 23.5t-22 54.5q0 30 22 51.5t53 21.5z" />
    <glyph glyph-name="egrave" unicode="&#xe8;" horiz-adv-x="610" 
d="M556 553v-133h-362v-73h325v-133h-325v-78h375v-136h-522v553h509zM403 625l-124 -32l-45 178l121 31z" />
    <glyph glyph-name="emacron" unicode="&#x113;" horiz-adv-x="610" 
d="M556 553v-133h-362v-73h325v-133h-325v-78h375v-136h-522v553h509zM509 719v-113h-388v113h388z" />
    <glyph glyph-name="eogonek" unicode="&#x119;" horiz-adv-x="610" 
d="M556 553v-133h-362v-71h325v-134h-325v-79h375v-136q-25 -20 -31.5 -38.5t-6.5 -35.5q0 -21 6 -41t24 -41l-64 -55q-38 17 -58 48t-20 65q0 33 12 56.5t39 41.5h-423v553h509z" />
    <glyph glyph-name="gbreve" unicode="&#x11f;" horiz-adv-x="695" 
d="M641 328v-328h-91l-18 35q-40 -24 -82.5 -36.5t-99.5 -12.5q-65 0 -121.5 20t-98.5 57.5t-66 91.5t-24 121t24 120.5t66 91t98.5 58t121.5 20.5q99 0 167 -36t117 -111l-117 -66q-16 21 -32 36t-35 24.5t-43.5 14t-57.5 4.5q-75 0 -119 -41t-44 -115q0 -75 43.5 -115.5
t119.5 -40.5q26 0 46.5 2t38.5 6.5t33.5 11t31.5 16.5v45l-136 5v122h278zM530 666q-26 -21 -48.5 -34t-43.5 -20t-41 -9t-42 -2t-42 2t-41 9t-43.5 20t-47.5 34l68 79q22 -16 45 -24t61 -8t61 8t46 24z" />
    <glyph glyph-name="gcircumflex" unicode="&#x11d;" horiz-adv-x="695" 
d="M641 328v-328h-91l-18 35q-40 -24 -82.5 -36.5t-99.5 -12.5q-65 0 -121.5 20t-98.5 57.5t-66 91.5t-24 121t24 120.5t66 91t98.5 58t121.5 20.5q99 0 167 -36t117 -111l-117 -66q-16 21 -32 36t-35 24.5t-43.5 14t-57.5 4.5q-75 0 -119 -41t-44 -115q0 -75 43.5 -115.5
t119.5 -40.5q26 0 46.5 2t38.5 6.5t33.5 11t31.5 16.5v45l-136 5v122h278zM342 653l-92 -58l-57 75l149 110l150 -110l-60 -75z" />
    <glyph glyph-name="gcommaaccent" unicode="&#x123;" horiz-adv-x="695" 
d="M641 328v-328h-91l-18 35q-40 -24 -82.5 -36.5t-99.5 -12.5q-65 0 -121.5 20t-98.5 57.5t-66 91.5t-24 121t24 120.5t66 91t98.5 58t121.5 20.5q99 0 167 -36t117 -111l-117 -66q-16 21 -32 36t-35 24.5t-43.5 14t-57.5 4.5q-75 0 -119 -41t-44 -115q0 -75 43.5 -115.5
t119.5 -40.5q26 0 46.5 2t38.5 6.5t33.5 11t31.5 16.5v45l-136 5v122h278zM361 -40q36 0 56 -25t20 -58q0 -5 -1 -13.5t-3 -16.5l-51 -133l-81 17l14 76q-18 11 -28 31t-10 40q0 16 6.5 31t18 26t27 18t32.5 7z" />
    <glyph glyph-name="gdotaccent" unicode="&#x121;" horiz-adv-x="695" 
d="M641 328v-328h-91l-18 35q-40 -24 -82.5 -36.5t-99.5 -12.5q-65 0 -121.5 20t-98.5 57.5t-66 91.5t-24 121t24 120.5t66 91t98.5 58t121.5 20.5q99 0 167 -36t117 -111l-117 -66q-16 21 -32 36t-35 24.5t-43.5 14t-57.5 4.5q-75 0 -119 -41t-44 -115q0 -75 43.5 -115.5
t119.5 -40.5q26 0 46.5 2t38.5 6.5t33.5 11t31.5 16.5v45l-136 5v122h278zM346 754q30 0 52 -21.5t22 -51.5q0 -31 -22 -54.5t-52 -23.5q-31 0 -53 23.5t-22 54.5q0 30 22 51.5t53 21.5z" />
    <glyph glyph-name="hbar" unicode="&#x127;" horiz-adv-x="646" 
d="M185 553v-57h276v57h138v-57h27v-113h-27v-383h-138v202h-276v-202h-138v383h-25v113h25v57h138zM461 343v40h-276v-40h276z" />
    <glyph glyph-name="hcircumflex" unicode="&#x125;" horiz-adv-x="659" 
d="M194 553v-202h271v202h148v-553h-148v219h-271v-219h-147v553h147zM338 653l-92 -58l-57 75l149 110l150 -110l-60 -75z" />
    <glyph glyph-name="iogonek" unicode="&#x12f;" horiz-adv-x="241" 
d="M194 553v-553q-15 -20 -19.5 -38.5t-4.5 -35.5q0 -21 6 -41t24 -41l-64 -51q-38 17 -58 46t-20 63q0 33 12 55.5t47 42.5h-70v553h147z" />
    <glyph glyph-name="iacute" unicode="&#xed;" horiz-adv-x="241" 
d="M194 553v-553h-147v553h147zM110 802l121 -31l-44 -178l-125 32z" />
    <glyph glyph-name="ibreve" horiz-adv-x="241" 
d="M194 553v-553h-147v553h147zM308 666q-26 -21 -48.5 -34t-43.5 -20t-41 -9t-42 -2t-42 2t-41 9t-43.5 20t-47.5 34l68 79q22 -16 45 -24t61 -8t61 8t46 24z" />
    <glyph glyph-name="icircumflex" unicode="&#xee;" horiz-adv-x="241" 
d="M194 553v-553h-147v553h147zM132 653l-92 -58l-57 75l149 110l150 -110l-60 -75z" />
    <glyph glyph-name="idieresis" unicode="&#xef;" horiz-adv-x="241" 
d="M194 553v-553h-147v553h147zM7 756q31 0 54.5 -22t23.5 -54q0 -16 -6.5 -30.5t-17 -25.5t-25 -17.5t-29.5 -6.5q-32 0 -55.5 24t-23.5 56t23.5 54t55.5 22zM244 756q31 0 55 -22t24 -54q0 -16 -6.5 -30.5t-17.5 -25.5t-25.5 -17.5t-29.5 -6.5t-29 6.5t-24.5 17.5
t-17 25.5t-6.5 30.5q0 32 23 54t54 22z" />
    <glyph glyph-name="igrave" unicode="&#xec;" horiz-adv-x="241" 
d="M194 553v-553h-147v553h147zM188 625l-124 -32l-45 178l121 31z" />
    <glyph glyph-name="imacron" unicode="&#x12b;" horiz-adv-x="241" 
d="M194 553v-553h-147v553h147zM316 719v-113h-388v113h388z" />
    <glyph glyph-name="itilde" unicode="&#x129;" horiz-adv-x="241" 
d="M194 553v-553h-147v553h147zM324 674q-40 -74 -118 -74q-24 0 -42.5 6t-34.5 13t-31.5 13t-34.5 6q-15 0 -31 -8t-30 -26l-66 64q25 45 59.5 65.5t74.5 20.5q26 0 44 -5.5t33 -12.5t28.5 -12.5t31.5 -5.5q19 0 35 7t26 18z" />
    <glyph glyph-name="dotlessi" unicode="&#x131;" horiz-adv-x="241" 
d="M194 553v-553h-147v553h147z" />
    <glyph glyph-name="jcircumflex" unicode="&#x135;" horiz-adv-x="597" 
d="M551 553v-306q0 -52 -17 -99.5t-51.5 -83.5t-86.5 -57t-123 -21q-92 0 -159 44t-99 122l127 60q14 -44 50.5 -69.5t81.5 -25.5q37 0 62.5 10.5t41 29t22.5 44t7 56.5v296h144zM480 653l-92 -58l-57 75l149 110l150 -110l-60 -75z" />
    <glyph glyph-name="dotlessj" unicode="&#x237;" horiz-adv-x="597" 
d="M551 553v-306q0 -52 -17 -99.5t-51.5 -83.5t-86.5 -57t-123 -21q-92 0 -159 44t-99 122l127 60q14 -44 50.5 -69.5t81.5 -25.5q37 0 62.5 10.5t41 29t22.5 44t7 56.5v296h144z" />
    <glyph glyph-name="kcommaaccent" unicode="&#x137;" horiz-adv-x="661" 
d="M193 553v-195h130l133 195h170l-178 -256l190 -297h-175l-136 223h-134v-223h-146v553h146zM312 9q36 0 56 -25t20 -58q0 -5 -1 -13.5t-3 -16.5l-51 -133l-81 17l14 76q-18 11 -28 31t-10 40q0 16 6.5 31t18 26t27 18t32.5 7z" />
    <glyph glyph-name="lacute" unicode="&#x13a;" horiz-adv-x="585" 
d="M194 553v-420h365v-133h-512v553h147zM123 812l121 -31l-44 -178l-125 32z" />
    <glyph glyph-name="lcaron" unicode="&#x13e;" horiz-adv-x="585" 
d="M194 553v-420h365v-133h-512v553h147zM351 450q-18 10 -27 30t-9 40q0 33 25 56t61 23q29 0 53 -20.5t24 -59.5q0 -14 -7 -28l-59 -132l-81 16z" />
    <glyph glyph-name="lcommaaccent" unicode="&#x13c;" horiz-adv-x="585" 
d="M194 553v-420h365v-133h-512v553h147zM315 -28q36 0 56 -25t20 -58q0 -5 -1 -13.5t-3 -16.5l-51 -133l-81 17l14 76q-18 11 -28 31t-10 40q0 16 6.5 31t18 26t27 18t32.5 7z" />
    <glyph glyph-name="ldot" unicode="&#x140;" horiz-adv-x="585" 
d="M194 553v-420h365v-133h-512v553h147zM383 395q19 0 36 -7.5t29.5 -20.5t20 -29.5t7.5 -35.5t-7.5 -35.5t-20 -29t-29.5 -20t-36 -7.5q-18 0 -34.5 7.5t-29 20t-20 29t-7.5 35.5t7.5 35.5t20 29.5t29 20.5t34.5 7.5z" />
    <glyph glyph-name="lslash" unicode="&#x142;" horiz-adv-x="624" 
d="M11 319l74 33v201h148v-137l103 47l49 -111l-152 -69v-151h365v-132h-513v218l-24 -11z" />
    <glyph glyph-name="nacute" unicode="&#x144;" horiz-adv-x="670" 
d="M181 553l296 -334v334h146v-553h-135l-296 334v-334h-145v553h134zM319 802l121 -31l-44 -178l-125 32z" />
    <glyph glyph-name="napostrophe" unicode="&#x149;" horiz-adv-x="823" 
d="M331 553l296 -334v334h146v-553h-135l-296 334v-334h-145v553h134zM102 716q36 0 56 -25t20 -58q0 -5 -1 -13.5t-3 -16.5l-51 -133l-81 17l14 76q-18 11 -28 31t-10 40q0 16 6.5 31t18 26t27 18t32.5 7z" />
    <glyph glyph-name="ncaron" unicode="&#x148;" horiz-adv-x="670" 
d="M181 553l296 -334v334h146v-553h-135l-296 334v-334h-145v553h134zM335 705l91 58l58 -75l-149 -110l-150 110l60 75z" />
    <glyph glyph-name="ncommaaccent" unicode="&#x146;" horiz-adv-x="670" 
d="M181 553l296 -334v334h146v-553h-135l-296 334v-334h-145v553h134zM339 5q36 0 56 -25t20 -58q0 -5 -1 -13.5t-3 -16.5l-51 -133l-81 17l14 76q-18 11 -28 31t-10 40q0 16 6.5 31t18 26t27 18t32.5 7z" />
    <glyph glyph-name="ntilde" unicode="&#xf1;" horiz-adv-x="670" 
d="M181 553l296 -334v334h146v-553h-135l-296 334v-334h-145v553h134zM528 674q-40 -74 -118 -74q-24 0 -42.5 6t-34.5 13t-31.5 13t-34.5 6q-15 0 -31 -8t-30 -26l-66 64q25 45 59.5 65.5t74.5 20.5q26 0 44 -5.5t33 -12.5t28.5 -12.5t31.5 -5.5q19 0 35 7t26 18z" />
    <glyph glyph-name="oacute" unicode="&#xf3;" 
d="M190 276q0 -38 12.5 -68.5t35 -52t52 -33t64.5 -11.5q34 0 64 11.5t52 33t34.5 52t12.5 68.5t-12.5 68.5t-34.5 52t-52 33t-64 11.5q-35 0 -64.5 -11.5t-52 -33t-35 -52t-12.5 -68.5zM665 276q0 -65 -25.5 -118.5t-68 -91.5t-99 -59t-118.5 -21t-118.5 21t-99 59
t-68 91.5t-25.5 118.5t25.5 118.5t68 91.5t99 59t118.5 21t118.5 -21t99 -59t68 -91.5t25.5 -118.5zM341 802l121 -31l-44 -178l-125 32z" />
    <glyph glyph-name="obreve" unicode="&#x14f;" 
d="M190 276q0 -38 12.5 -68.5t35 -52t52 -33t64.5 -11.5q34 0 64 11.5t52 33t34.5 52t12.5 68.5t-12.5 68.5t-34.5 52t-52 33t-64 11.5q-35 0 -64.5 -11.5t-52 -33t-35 -52t-12.5 -68.5zM665 276q0 -65 -25.5 -118.5t-68 -91.5t-99 -59t-118.5 -21t-118.5 21t-99 59
t-68 91.5t-25.5 118.5t25.5 118.5t68 91.5t99 59t118.5 21t118.5 -21t99 -59t68 -91.5t25.5 -118.5zM528 666q-26 -21 -48.5 -34t-43.5 -20t-41 -9t-42 -2t-42 2t-41 9t-43.5 20t-47.5 34l68 79q22 -16 45 -24t61 -8t61 8t46 24z" />
    <glyph glyph-name="ocircumflex" unicode="&#xf4;" 
d="M190 276q0 -38 12.5 -68.5t35 -52t52 -33t64.5 -11.5q34 0 64 11.5t52 33t34.5 52t12.5 68.5t-12.5 68.5t-34.5 52t-52 33t-64 11.5q-35 0 -64.5 -11.5t-52 -33t-35 -52t-12.5 -68.5zM665 276q0 -65 -25.5 -118.5t-68 -91.5t-99 -59t-118.5 -21t-118.5 21t-99 59
t-68 91.5t-25.5 118.5t25.5 118.5t68 91.5t99 59t118.5 21t118.5 -21t99 -59t68 -91.5t25.5 -118.5zM353 653l-92 -58l-57 75l149 110l150 -110l-60 -75z" />
    <glyph glyph-name="odieresis" unicode="&#xf6;" 
d="M190 276q0 -38 12.5 -68.5t35 -52t52 -33t64.5 -11.5q34 0 64 11.5t52 33t34.5 52t12.5 68.5t-12.5 68.5t-34.5 52t-52 33t-64 11.5q-35 0 -64.5 -11.5t-52 -33t-35 -52t-12.5 -68.5zM665 276q0 -65 -25.5 -118.5t-68 -91.5t-99 -59t-118.5 -21t-118.5 21t-99 59
t-68 91.5t-25.5 118.5t25.5 118.5t68 91.5t99 59t118.5 21t118.5 -21t99 -59t68 -91.5t25.5 -118.5zM235 756q31 0 54.5 -22t23.5 -54q0 -16 -6.5 -30.5t-17 -25.5t-25 -17.5t-29.5 -6.5q-32 0 -55.5 24t-23.5 56t23.5 54t55.5 22zM472 756q31 0 55 -22t24 -54
q0 -16 -6.5 -30.5t-17.5 -25.5t-25.5 -17.5t-29.5 -6.5t-29 6.5t-24.5 17.5t-17 25.5t-6.5 30.5q0 32 23 54t54 22z" />
    <glyph glyph-name="ograve" unicode="&#xf2;" 
d="M190 276q0 -38 12.5 -68.5t35 -52t52 -33t64.5 -11.5q34 0 64 11.5t52 33t34.5 52t12.5 68.5t-12.5 68.5t-34.5 52t-52 33t-64 11.5q-35 0 -64.5 -11.5t-52 -33t-35 -52t-12.5 -68.5zM665 276q0 -65 -25.5 -118.5t-68 -91.5t-99 -59t-118.5 -21t-118.5 21t-99 59
t-68 91.5t-25.5 118.5t25.5 118.5t68 91.5t99 59t118.5 21t118.5 -21t99 -59t68 -91.5t25.5 -118.5zM416 625l-124 -32l-45 178l121 31z" />
    <glyph glyph-name="ohungarumlaut" unicode="&#x151;" 
d="M190 276q0 -38 12.5 -68.5t35 -52t52 -33t64.5 -11.5q34 0 64 11.5t52 33t34.5 52t12.5 68.5t-12.5 68.5t-34.5 52t-52 33t-64 11.5q-35 0 -64.5 -11.5t-52 -33t-35 -52t-12.5 -68.5zM665 276q0 -65 -25.5 -118.5t-68 -91.5t-99 -59t-118.5 -21t-118.5 21t-99 59
t-68 91.5t-25.5 118.5t25.5 118.5t68 91.5t99 59t118.5 21t118.5 -21t99 -59t68 -91.5t25.5 -118.5zM235 802l121 -31l-46 -178l-125 32zM401 802l121 -31l-43 -178l-125 32z" />
    <glyph glyph-name="omacron" unicode="&#x14d;" 
d="M190 276q0 -38 12.5 -68.5t35 -52t52 -33t64.5 -11.5q34 0 64 11.5t52 33t34.5 52t12.5 68.5t-12.5 68.5t-34.5 52t-52 33t-64 11.5q-35 0 -64.5 -11.5t-52 -33t-35 -52t-12.5 -68.5zM665 276q0 -65 -25.5 -118.5t-68 -91.5t-99 -59t-118.5 -21t-118.5 21t-99 59
t-68 91.5t-25.5 118.5t25.5 118.5t68 91.5t99 59t118.5 21t118.5 -21t99 -59t68 -91.5t25.5 -118.5zM548 719v-113h-388v113h388z" />
    <glyph glyph-name="oslash" unicode="&#xf8;" horiz-adv-x="686" 
d="M581 534l-23 -37q48 -38 77.5 -94t29.5 -126q0 -65 -25.5 -118t-68 -91t-99 -58.5t-118.5 -20.5q-45 0 -91 11l-27 -44l-108 58l23 40q-49 39 -78.5 95.5t-29.5 127.5q0 65 25.5 118.5t68 91.5t99 58.5t118.5 20.5q23 0 45.5 -3t45.5 -10l22 39zM378 441h-24
q-35 0 -64.5 -11.5t-52 -32.5t-35 -51.5t-12.5 -68.5q0 -63 30 -106zM329 113q7 0 13 0.5t12 0.5q34 0 64 11.5t52 32.5t34.5 51t12.5 68q0 59 -28 103z" />
    <glyph glyph-name="oslashacute" unicode="&#x1ff;" horiz-adv-x="686" 
d="M581 534l-23 -37q48 -38 77.5 -94t29.5 -126q0 -65 -25.5 -118t-68 -91t-99 -58.5t-118.5 -20.5q-45 0 -91 11l-27 -44l-108 58l23 40q-49 39 -78.5 95.5t-29.5 127.5q0 65 25.5 118.5t68 91.5t99 58.5t118.5 20.5q23 0 45.5 -3t45.5 -10l22 39zM378 441h-24
q-35 0 -64.5 -11.5t-52 -32.5t-35 -51.5t-12.5 -68.5q0 -63 30 -106zM329 113q7 0 13 0.5t12 0.5q34 0 64 11.5t52 32.5t34.5 51t12.5 68q0 59 -28 103zM353 802l121 -31l-44 -178l-125 32z" />
    <glyph glyph-name="otilde" unicode="&#xf5;" 
d="M190 276q0 -38 12.5 -68.5t35 -52t52 -33t64.5 -11.5q34 0 64 11.5t52 33t34.5 52t12.5 68.5t-12.5 68.5t-34.5 52t-52 33t-64 11.5q-35 0 -64.5 -11.5t-52 -33t-35 -52t-12.5 -68.5zM665 276q0 -65 -25.5 -118.5t-68 -91.5t-99 -59t-118.5 -21t-118.5 21t-99 59
t-68 91.5t-25.5 118.5t25.5 118.5t68 91.5t99 59t118.5 21t118.5 -21t99 -59t68 -91.5t25.5 -118.5zM533 673q-40 -74 -118 -74q-24 0 -42.5 6t-34.5 13t-31.5 13t-34.5 6q-15 0 -31 -8t-30 -26l-66 64q25 45 59.5 65.5t74.5 20.5q26 0 44 -5.5t33 -12.5t28.5 -12.5
t31.5 -5.5q19 0 35 7t26 18z" />
    <glyph glyph-name="oe" unicode="&#x153;" horiz-adv-x="1076" 
d="M1018 553v-133h-347v-71h311v-134h-311v-79h361v-136h-503v20q-37 -19 -79 -26.5t-93 -7.5q-70 0 -124 18t-96 57q-94 88 -94 216q0 69 23.5 119.5t70.5 94.5q42 39 96 57t124 18q53 0 94 -8.5t78 -25.5v21h489zM190 276q0 -74 38 -118q41 -47 129 -47t130 47
q38 44 38 119q0 73 -38 117q-42 47 -130 47t-129 -47q-18 -21 -28 -51t-10 -67z" />
    <glyph glyph-name="racute" unicode="&#x155;" horiz-adv-x="633" 
d="M374 553q50 0 92.5 -16t73 -45t48 -69.5t17.5 -89.5q0 -62 -26.5 -108t-73.5 -74l84 -151h-160l-63 118h-172v-118h-147v553h327zM194 252h174q39 0 64 20t25 61q0 40 -25 63t-64 23h-174v-167zM280 802l121 -31l-44 -178l-125 32z" />
    <glyph glyph-name="rcaron" unicode="&#x159;" horiz-adv-x="633" 
d="M374 553q50 0 92.5 -16t73 -45t48 -69.5t17.5 -89.5q0 -62 -26.5 -108t-73.5 -74l84 -151h-160l-63 118h-172v-118h-147v553h327zM194 252h174q39 0 64 20t25 61q0 40 -25 63t-64 23h-174v-167zM303 705l91 58l58 -75l-149 -110l-150 110l60 75z" />
    <glyph glyph-name="rcommaaccent" unicode="&#x157;" horiz-adv-x="633" 
d="M374 553q50 0 92.5 -16t73 -45t48 -69.5t17.5 -89.5q0 -62 -26.5 -108t-73.5 -74l84 -151h-160l-63 118h-172v-118h-147v553h327zM194 252h174q39 0 64 20t25 61q0 40 -25 63t-64 23h-174v-167zM311 12q36 0 56 -25t20 -58q0 -5 -1 -13.5t-3 -16.5l-51 -133l-81 17l14 76
q-18 11 -28 31t-10 40q0 16 6.5 31t18 26t27 18t32.5 7z" />
    <glyph glyph-name="sacute" unicode="&#x15b;" horiz-adv-x="660" 
d="M538 370q-48 35 -100 50t-117 15q-35 0 -57.5 -3.5t-35.5 -10t-17.5 -14.5t-4.5 -17q0 -17 16 -22.5t41 -8.5l161 -18q91 -11 144 -51t53 -120q0 -48 -22.5 -82.5t-61.5 -57t-92.5 -33.5t-115.5 -11q-86 0 -155 21t-137 73l69 114q57 -40 114.5 -60t121.5 -20
q57 0 96.5 13t39.5 41q0 14 -7 22t-33 10l-190 22q-88 10 -137.5 48.5t-49.5 118.5q0 45 20.5 78.5t56 55.5t82.5 32.5t101 10.5q80 0 151 -18.5t137 -69.5zM326 802l121 -31l-44 -178l-125 32z" />
    <glyph glyph-name="scaron" unicode="&#x161;" horiz-adv-x="660" 
d="M538 370q-48 35 -100 50t-117 15q-35 0 -57.5 -3.5t-35.5 -10t-17.5 -14.5t-4.5 -17q0 -17 16 -22.5t41 -8.5l161 -18q91 -11 144 -51t53 -120q0 -48 -22.5 -82.5t-61.5 -57t-92.5 -33.5t-115.5 -11q-86 0 -155 21t-137 73l69 114q57 -40 114.5 -60t121.5 -20
q57 0 96.5 13t39.5 41q0 14 -7 22t-33 10l-190 22q-88 10 -137.5 48.5t-49.5 118.5q0 45 20.5 78.5t56 55.5t82.5 32.5t101 10.5q80 0 151 -18.5t137 -69.5zM340 705l91 58l58 -75l-149 -110l-150 110l60 75z" />
    <glyph glyph-name="scedilla" unicode="&#x15f;" horiz-adv-x="660" 
d="M538 370q-48 35 -100 50t-117 15q-35 0 -57.5 -3.5t-35.5 -10t-17.5 -14.5t-4.5 -17q0 -17 16 -22.5t41 -8.5l161 -18q91 -11 144 -51t53 -120q0 -46 -20.5 -80t-57.5 -56.5t-87 -34.5t-108 -13v-22q32 -3 54 -28t22 -64q0 -26 -11 -45t-30.5 -31t-45.5 -18t-56 -6
q-14 0 -32.5 4t-38.5 12l21 64q13 -5 30 -6.5t22 -1.5q20 0 32.5 5.5t12.5 22.5q0 23 -19 23h-45l-6 6l8 89q-65 5 -119.5 26.5t-109.5 63.5l69 114q57 -41 114.5 -60.5t121.5 -19.5q57 0 96.5 13t39.5 41q0 14 -7 22t-33 10l-190 22q-88 10 -137.5 48.5t-49.5 118.5
q0 45 20.5 78.5t56 55.5t82.5 32.5t101 10.5q80 0 151 -18.5t137 -69.5z" />
    <glyph glyph-name="scircumflex" unicode="&#x15d;" horiz-adv-x="660" 
d="M538 370q-48 35 -100 50t-117 15q-35 0 -57.5 -3.5t-35.5 -10t-17.5 -14.5t-4.5 -17q0 -17 16 -22.5t41 -8.5l161 -18q91 -11 144 -51t53 -120q0 -48 -22.5 -82.5t-61.5 -57t-92.5 -33.5t-115.5 -11q-86 0 -155 21t-137 73l69 114q57 -40 114.5 -60t121.5 -20
q57 0 96.5 13t39.5 41q0 14 -7 22t-33 10l-190 22q-88 10 -137.5 48.5t-49.5 118.5q0 45 20.5 78.5t56 55.5t82.5 32.5t101 10.5q80 0 151 -18.5t137 -69.5zM332 653l-92 -58l-57 75l149 110l150 -110l-60 -75z" />
    <glyph glyph-name="scommaaccent" unicode="&#x219;" horiz-adv-x="660" 
d="M538 370q-48 35 -100 50t-117 15q-35 0 -57.5 -3.5t-35.5 -10t-17.5 -14.5t-4.5 -17q0 -17 16 -22.5t41 -8.5l161 -18q91 -11 144 -51t53 -120q0 -48 -22.5 -82.5t-61.5 -57t-92.5 -33.5t-115.5 -11q-86 0 -155 21t-137 73l69 114q57 -40 114.5 -60t121.5 -20
q57 0 96.5 13t39.5 41q0 14 -7 22t-33 10l-190 22q-88 10 -137.5 48.5t-49.5 118.5q0 45 20.5 78.5t56 55.5t82.5 32.5t101 10.5q80 0 151 -18.5t137 -69.5zM320 -31q36 0 56 -25t20 -58q0 -5 -1 -13.5t-3 -16.5l-51 -133l-81 17l14 76q-18 11 -28 31t-10 40q0 16 6.5 31
t18 26t27 18t32.5 7z" />
    <glyph glyph-name="tbar" unicode="&#x167;" horiz-adv-x="638" 
d="M608 553v-132h-215v-81h103v-114h-103v-226h-148v226h-103v114h103v81h-215v132h578z" />
    <glyph glyph-name="tcaron" unicode="&#x165;" horiz-adv-x="638" 
d="M608 553v-132h-215v-421h-148v421h-215v132h578zM319 705l91 58l58 -75l-149 -110l-150 110l60 75z" />
    <glyph glyph-name="tcommaaccent" unicode="&#x163;" horiz-adv-x="638" 
d="M608 553v-132h-215v-421h-148v421h-215v132h578zM318 -31q36 0 56 -25t20 -58q0 -5 -1 -13.5t-3 -16.5l-51 -133l-81 17l14 76q-18 11 -28 31t-10 40q0 16 6.5 31t18 26t27 18t32.5 7z" />
    <glyph glyph-name="uacute" unicode="&#xfa;" horiz-adv-x="653" 
d="M189 553v-283q0 -74 33 -114.5t105 -40.5q71 0 104 40.5t33 114.5v283h148v-282q0 -69 -20 -122t-57 -89t-90 -55t-118 -19t-118 19t-90 55t-57 89t-20 122v282h147zM308 802l121 -31l-44 -178l-125 32z" />
    <glyph glyph-name="ubreve" unicode="&#x16d;" horiz-adv-x="653" 
d="M189 553v-283q0 -74 33 -114.5t105 -40.5q71 0 104 40.5t33 114.5v283h148v-282q0 -69 -20 -122t-57 -89t-90 -55t-118 -19t-118 19t-90 55t-57 89t-20 122v282h147zM501 666q-26 -21 -48.5 -34t-43.5 -20t-41 -9t-42 -2t-42 2t-41 9t-43.5 20t-47.5 34l68 79
q22 -16 45 -24t61 -8t61 8t46 24z" />
    <glyph glyph-name="ucircumflex" unicode="&#xfb;" horiz-adv-x="653" 
d="M189 553v-283q0 -74 33 -114.5t105 -40.5q71 0 104 40.5t33 114.5v283h148v-282q0 -69 -20 -122t-57 -89t-90 -55t-118 -19t-118 19t-90 55t-57 89t-20 122v282h147zM327 653l-92 -58l-57 75l149 110l150 -110l-60 -75z" />
    <glyph glyph-name="udieresis" unicode="&#xfc;" horiz-adv-x="653" 
d="M189 553v-283q0 -74 33 -114.5t105 -40.5q71 0 104 40.5t33 114.5v283h148v-282q0 -69 -20 -122t-57 -89t-90 -55t-118 -19t-118 19t-90 55t-57 89t-20 122v282h147zM208 756q31 0 54.5 -22t23.5 -54q0 -16 -6.5 -30.5t-17 -25.5t-25 -17.5t-29.5 -6.5q-32 0 -55.5 24
t-23.5 56t23.5 54t55.5 22zM445 756q31 0 55 -22t24 -54q0 -16 -6.5 -30.5t-17.5 -25.5t-25.5 -17.5t-29.5 -6.5t-29 6.5t-24.5 17.5t-17 25.5t-6.5 30.5q0 32 23 54t54 22z" />
    <glyph glyph-name="uhungarumlaut" unicode="&#x171;" horiz-adv-x="653" 
d="M189 553v-283q0 -74 33 -114.5t105 -40.5q71 0 104 40.5t33 114.5v283h148v-282q0 -69 -20 -122t-57 -89t-90 -55t-118 -19t-118 19t-90 55t-57 89t-20 122v282h147zM225 802l121 -31l-46 -178l-125 32zM391 802l121 -31l-43 -178l-125 32z" />
    <glyph glyph-name="ugrave" unicode="&#xf9;" horiz-adv-x="653" 
d="M189 553v-283q0 -74 33 -114.5t105 -40.5q71 0 104 40.5t33 114.5v283h148v-282q0 -69 -20 -122t-57 -89t-90 -55t-118 -19t-118 19t-90 55t-57 89t-20 122v282h147zM387 625l-124 -32l-45 178l121 31z" />
    <glyph glyph-name="umacron" unicode="&#x16b;" horiz-adv-x="653" 
d="M189 553v-283q0 -74 33 -114.5t105 -40.5q71 0 104 40.5t33 114.5v283h148v-282q0 -69 -20 -122t-57 -89t-90 -55t-118 -19t-118 19t-90 55t-57 89t-20 122v282h147zM521 719v-113h-388v113h388z" />
    <glyph glyph-name="uogonek" unicode="&#x173;" horiz-adv-x="653" 
d="M189 553v-283q0 -74 33 -114.5t105 -40.5q71 0 104 40.5t33 114.5v283h148v-282q0 -121 -60 -192.5t-164 -88.5q-11 -17 -14 -32.5t-3 -31.5q0 -21 6 -41t24 -41l-64 -51q-38 17 -58 46t-20 63q0 28 7 48t24 38q-115 9 -181.5 82t-66.5 201v282h147z" />
    <glyph glyph-name="uring" unicode="&#x16f;" horiz-adv-x="653" 
d="M189 553v-283q0 -74 33 -114.5t105 -40.5q71 0 104 40.5t33 114.5v283h148v-282q0 -69 -20 -122t-57 -89t-90 -55t-118 -19t-118 19t-90 55t-57 89t-20 122v282h147zM457 719q0 -29 -10.5 -52.5t-28.5 -40t-42 -25.5t-50 -9t-50 9t-42 25.5t-28.5 40t-10.5 52.5
q0 28 10.5 52t28.5 40.5t42 26t50 9.5t50 -9.5t42 -26t28.5 -40.5t10.5 -52zM290 719q0 -23 9.5 -30.5t26.5 -7.5t26.5 7.5t9.5 30.5q0 22 -9.5 30.5t-26.5 8.5t-26.5 -8.5t-9.5 -30.5z" />
    <glyph glyph-name="utilde" unicode="&#x169;" horiz-adv-x="653" 
d="M189 553v-283q0 -74 33 -114.5t105 -40.5q71 0 104 40.5t33 114.5v283h148v-282q0 -69 -20 -122t-57 -89t-90 -55t-118 -19t-118 19t-90 55t-57 89t-20 122v282h147zM521 674q-40 -74 -118 -74q-24 0 -42.5 6t-34.5 13t-31.5 13t-34.5 6q-15 0 -31 -8t-30 -26l-66 64
q25 45 59.5 65.5t74.5 20.5q26 0 44 -5.5t33 -12.5t28.5 -12.5t31.5 -5.5q19 0 35 7t26 18z" />
    <glyph glyph-name="wacute" unicode="&#x1e83;" horiz-adv-x="1017" 
d="M186 553l127 -428h4l108 428h167l107 -428h4l131 428h155l-201 -553h-191l-91 387l-95 -387h-188l-193 553h156zM498 802l121 -31l-44 -178l-125 32z" />
    <glyph glyph-name="wcircumflex" unicode="&#x175;" horiz-adv-x="1017" 
d="M186 553l127 -428h4l108 428h167l107 -428h4l131 428h155l-201 -553h-191l-91 387l-95 -387h-188l-193 553h156zM508 653l-92 -58l-57 75l149 110l150 -110l-60 -75z" />
    <glyph glyph-name="wdieresis" unicode="&#x1e85;" horiz-adv-x="1017" 
d="M186 553l127 -428h4l108 428h167l107 -428h4l131 428h155l-201 -553h-191l-91 387l-95 -387h-188l-193 553h156zM390 756q31 0 54.5 -22t23.5 -54q0 -16 -6.5 -30.5t-17 -25.5t-25 -17.5t-29.5 -6.5q-32 0 -55.5 24t-23.5 56t23.5 54t55.5 22zM627 756q31 0 55 -22
t24 -54q0 -16 -6.5 -30.5t-17.5 -25.5t-25.5 -17.5t-29.5 -6.5t-29 6.5t-24.5 17.5t-17 25.5t-6.5 30.5q0 32 23 54t54 22z" />
    <glyph glyph-name="wgrave" unicode="&#x1e81;" horiz-adv-x="1017" 
d="M186 553l127 -428h4l108 428h167l107 -428h4l131 428h155l-201 -553h-191l-91 387l-95 -387h-188l-193 553h156zM579 625l-124 -32l-45 178l121 31z" />
    <glyph glyph-name="yacute" unicode="&#xfd;" horiz-adv-x="717" 
d="M199 553l161 -277h4l154 277h169l-257 -415v-138h-145v138l-255 415h169zM343 802l121 -31l-44 -178l-125 32z" />
    <glyph glyph-name="ycircumflex" unicode="&#x177;" horiz-adv-x="717" 
d="M199 553l161 -277h4l154 277h169l-257 -415v-138h-145v138l-255 415h169zM358 653l-92 -58l-57 75l149 110l150 -110l-60 -75z" />
    <glyph glyph-name="ydieresis" unicode="&#xff;" horiz-adv-x="717" 
d="M199 553l161 -277h4l154 277h169l-257 -415v-138h-145v138l-255 415h169zM239 756q31 0 54.5 -22t23.5 -54q0 -16 -6.5 -30.5t-17 -25.5t-25 -17.5t-29.5 -6.5q-32 0 -55.5 24t-23.5 56t23.5 54t55.5 22zM476 756q31 0 55 -22t24 -54q0 -16 -6.5 -30.5t-17.5 -25.5
t-25.5 -17.5t-29.5 -6.5t-29 6.5t-24.5 17.5t-17 25.5t-6.5 30.5q0 32 23 54t54 22z" />
    <glyph glyph-name="ygrave" unicode="&#x1ef3;" horiz-adv-x="717" 
d="M199 553l161 -277h4l154 277h169l-257 -415v-138h-145v138l-255 415h169zM424 625l-124 -32l-45 178l121 31z" />
    <glyph glyph-name="zacute" unicode="&#x17a;" horiz-adv-x="614" 
d="M572 553v-124l-341 -303l125 4h218v-130h-534v128l349 299l-125 -4h-215v130h523zM261 802l121 -31l-44 -178l-125 32z" />
    <glyph glyph-name="zcaron" unicode="&#x17e;" horiz-adv-x="614" 
d="M572 553v-124l-341 -303l125 4h218v-130h-534v128l349 299l-125 -4h-215v130h523zM308 705l91 58l58 -75l-149 -110l-150 110l60 75z" />
    <glyph glyph-name="zdotaccent" unicode="&#x17c;" horiz-adv-x="614" 
d="M572 553v-124l-341 -303l125 4h218v-130h-534v128l349 299l-125 -4h-215v130h523zM308 754q30 0 52 -21.5t22 -51.5q0 -31 -22 -54.5t-52 -23.5q-31 0 -53 23.5t-22 54.5q0 30 22 51.5t53 21.5z" />
    <glyph glyph-name="Eth" unicode="&#xd0;" horiz-adv-x="709" 
d="M370 553q55 0 109 -20t96 -56.5t68 -87.5t26 -112t-25.5 -112t-67.5 -87.5t-96 -57t-110 -20.5h-291v217h-69v130h69v206h291zM227 347h123v-130h-123v-82h145q31 0 58 11t47.5 30t32 45t11.5 56t-11.5 56t-32 45.5t-47.5 30.5t-58 11h-145v-73z" />
    <glyph glyph-name="eth" unicode="&#xf0;" horiz-adv-x="709" 
d="M370 553q55 0 109 -20t96 -56.5t68 -87.5t26 -112t-25.5 -112t-67.5 -87.5t-96 -57t-110 -20.5h-291v217h-69v130h69v206h291zM227 347h123v-130h-123v-82h145q31 0 58 11t47.5 30t32 45t11.5 56t-11.5 56t-32 45.5t-47.5 30.5t-58 11h-145v-73z" />
    <glyph glyph-name="Thorn" unicode="&#xde;" horiz-adv-x="629" 
d="M194 553v-59h179q46 0 86.5 -17t70.5 -46.5t47.5 -69t17.5 -85.5t-17.5 -85.5t-47.5 -68.5t-70.5 -45.5t-86.5 -16.5h-179v-60h-147v553h147zM194 193h175q40 0 60 24.5t20 58.5q0 35 -20 60t-60 25h-175v-168z" />
    <glyph glyph-name="thorn" unicode="&#xfe;" horiz-adv-x="629" 
d="M194 553v-59h179q46 0 86.5 -17t70.5 -46.5t47.5 -69t17.5 -85.5t-17.5 -85.5t-47.5 -68.5t-70.5 -45.5t-86.5 -16.5h-179v-60h-147v553h147zM194 193h175q40 0 60 24.5t20 58.5q0 35 -20 60t-60 25h-175v-168z" />
    <glyph glyph-name="cent" unicode="&#xa2;" horiz-adv-x="682" 
d="M414 603l3 -62q75 -11 128.5 -49t98.5 -104l-115 -65q-17 22 -34.5 39.5t-38.5 29.5t-46.5 18t-57.5 6q-75 0 -120 -40t-45 -110q0 -35 12 -62.5t34 -46.5t52.5 -29.5t66.5 -10.5q64 0 104 23.5t73 68.5l114 -65q-45 -66 -98.5 -104.5t-126.5 -48.5l-3 -81h-137l-4 84
q-52 10 -95 34t-74 59t-48 80.5t-17 98.5t17.5 98t49 80.5t75 59.5t94.5 35l2 64h136z" />
    <glyph glyph-name="afii10050" unicode="&#x490;" horiz-adv-x="590" 
d="M426 553l10 105h127v-238h-369v-420h-147v553h379z" />
    <glyph glyph-name="afii10056" unicode="&#x407;" horiz-adv-x="241" 
d="M194 553v-553h-147v553h147zM3 756q31 0 54.5 -22t23.5 -54q0 -16 -6.5 -30.5t-17 -25.5t-25 -17.5t-29.5 -6.5q-32 0 -55.5 24t-23.5 56t23.5 54t55.5 22zM240 756q31 0 55 -22t24 -54q0 -16 -6.5 -30.5t-17.5 -25.5t-25.5 -17.5t-29.5 -6.5t-29 6.5t-24.5 17.5
t-17 25.5t-6.5 30.5q0 32 23 54t54 22z" />
    <glyph glyph-name="afii10098" unicode="&#x491;" horiz-adv-x="590" 
d="M426 553l10 105h127v-238h-369v-420h-147v553h379z" />
    <glyph glyph-name="afii10051" unicode="&#x402;" horiz-adv-x="767" 
d="M598 553v-129h-220v-53h97q67 0 116.5 -18t81.5 -51.5t48 -81t16 -106.5q0 -38 -9.5 -77.5t-27.5 -78t-43 -74t-56 -63.5l-101 89q90 96 90 200q0 40 -6.5 65.5t-22 40.5t-42.5 20.5t-69 5.5h-72v-242h-148v424h-201v129h569z" />
    <glyph glyph-name="afii10099" unicode="&#x452;" horiz-adv-x="767" 
d="M598 553v-129h-220v-53h97q67 0 116.5 -18t81.5 -51.5t48 -81t16 -106.5q0 -38 -9.5 -77.5t-27.5 -78t-43 -74t-56 -63.5l-101 89q90 96 90 200q0 40 -6.5 65.5t-22 40.5t-42.5 20.5t-69 5.5h-72v-242h-148v424h-201v129h569z" />
    <glyph glyph-name="afii10052" unicode="&#x403;" horiz-adv-x="592" 
d="M563 553v-133h-369v-420h-147v553h516zM300 802l121 -31l-44 -178l-125 32z" />
    <glyph glyph-name="afii10058" unicode="&#x409;" horiz-adv-x="1052" 
d="M644 553v-119h146q49 0 91.5 -14.5t74 -42t49 -67t17.5 -88.5q0 -50 -17.5 -90.5t-49 -70t-74 -45.5t-91.5 -16h-294v421h-176l-52 -276q-14 -77 -59 -111t-117 -34h-62v133h57q31 0 37 31l73 389h447zM644 134h135q50 0 73 21.5t23 66.5q0 44 -23 62.5t-73 18.5h-135
v-169z" />
    <glyph glyph-name="afii10059" unicode="&#x40a;" horiz-adv-x="1014" 
d="M194 553v-202h257v202h148v-119h146q50 0 92.5 -14.5t73.5 -42t48.5 -67t17.5 -88.5q0 -50 -17.5 -90.5t-48.5 -70t-73.5 -45.5t-92.5 -16h-294v219h-257v-219h-147v553h147zM599 134h136q50 0 72.5 21.5t22.5 66.5q0 44 -22.5 62.5t-72.5 18.5h-136v-169z" />
    <glyph glyph-name="afii10107" unicode="&#x45a;" horiz-adv-x="1014" 
d="M194 553v-202h257v202h148v-119h146q50 0 92.5 -14.5t73.5 -42t48.5 -67t17.5 -88.5q0 -50 -17.5 -90.5t-48.5 -70t-73.5 -45.5t-92.5 -16h-294v219h-257v-219h-147v553h147zM599 134h136q50 0 72.5 21.5t22.5 66.5q0 44 -22.5 62.5t-72.5 18.5h-136v-169z" />
    <glyph glyph-name="afii10100" unicode="&#x453;" horiz-adv-x="592" 
d="M563 553v-133h-369v-420h-147v553h516zM246 802l121 -31l-44 -178l-125 32z" />
    <glyph glyph-name="afii10104" unicode="&#x457;" horiz-adv-x="241" 
d="M194 553v-553h-147v553h147zM3 756q31 0 54.5 -22t23.5 -54q0 -16 -6.5 -30.5t-17 -25.5t-25 -17.5t-29.5 -6.5q-32 0 -55.5 24t-23.5 56t23.5 54t55.5 22zM240 756q31 0 55 -22t24 -54q0 -16 -6.5 -30.5t-17.5 -25.5t-25.5 -17.5t-29.5 -6.5t-29 6.5t-24.5 17.5
t-17 25.5t-6.5 30.5q0 32 23 54t54 22z" />
    <glyph glyph-name="afii10108" unicode="&#x45b;" horiz-adv-x="769" 
d="M598 553v-129h-220v-53h97q67 0 116.5 -18t81.5 -51.5t48 -81t16 -106.5v-114h-147v114q0 39 -6.5 63.5t-23 39t-43.5 20t-69 5.5h-70v-242h-148v424h-201v129h569z" />
    <glyph glyph-name="afii10060" unicode="&#x40b;" horiz-adv-x="769" 
d="M598 553v-129h-220v-53h97q67 0 116.5 -18t81.5 -51.5t48 -81t16 -106.5v-114h-147v114q0 39 -6.5 63.5t-23 39t-43.5 20t-69 5.5h-70v-242h-148v424h-201v129h569z" />
    <glyph glyph-name="afii10061" unicode="&#x40c;" horiz-adv-x="661" 
d="M193 553v-195h130l133 195h170l-178 -256l190 -297h-175l-136 223h-134v-223h-146v553h146zM303 805l121 -31l-44 -178l-125 32z" />
    <glyph glyph-name="afii10062" unicode="&#x40e;" horiz-adv-x="670" 
d="M170 553l76 -227q7 -20 28 -20h140l83 247h151l-148 -435q-9 -26 -25 -47.5t-37.5 -37t-47 -24.5t-53.5 -9h-163v124h157q26 0 36 27l7 24h-106q-66 0 -104 28.5t-58 88.5l-88 261h152zM506 669q-26 -21 -48.5 -34t-43.5 -20t-41 -9t-42 -2t-42 2t-41 9t-43.5 20
t-47.5 34l68 79q22 -16 45 -24t61 -8t61 8t46 24z" />
    <glyph glyph-name="afii10109" unicode="&#x45c;" horiz-adv-x="661" 
d="M193 553v-195h130l133 195h170l-178 -256l190 -297h-175l-136 223h-134v-223h-146v553h146zM303 805l121 -31l-44 -178l-125 32z" />
    <glyph glyph-name="afii10110" unicode="&#x45e;" horiz-adv-x="670" 
d="M170 553l76 -227q7 -20 28 -20h140l83 247h151l-148 -435q-9 -26 -25 -47.5t-37.5 -37t-47 -24.5t-53.5 -9h-163v124h157q26 0 36 27l7 24h-106q-66 0 -104 28.5t-58 88.5l-88 261h152zM506 669q-26 -21 -48.5 -34t-43.5 -20t-41 -9t-42 -2t-42 2t-41 9t-43.5 20
t-47.5 34l68 79q22 -16 45 -24t61 -8t61 8t46 24z" />
    <glyph glyph-name="afii10145" unicode="&#x40f;" horiz-adv-x="643" 
d="M193 553v-423h256v423h148v-553h-198l-9 -104h-128l-9 104h-206v553h146z" />
    <glyph glyph-name="afii10193" unicode="&#x45f;" horiz-adv-x="643" 
d="M193 553v-423h256v423h148v-553h-198l-9 -104h-128l-9 104h-206v553h146z" />
    <glyph glyph-name="afii10147" unicode="&#x472;" 
d="M43 277q0 65 25.5 118.5t68 91.5t99 58.5t118.5 20.5t118.5 -20.5t99 -58.5t68 -91.5t25.5 -118.5t-25.5 -118t-68 -91t-99 -58.5t-118.5 -20.5t-118.5 20.5t-99 58.5t-68 91t-25.5 118zM199 210q20 -45 61 -70.5t94 -25.5q59 0 103 32.5t57 91.5q-18 -15 -43.5 -22
t-48.5 -7q-21 0 -35 5t-25 10.5t-23 10.5t-28 5q-39 0 -67 -7t-45 -23zM193 310q42 46 122 46q23 0 38 -4.5t27 -9.5t24.5 -9.5t31.5 -4.5q20 0 40.5 5t28.5 14q-20 45 -60 69.5t-91 24.5q-61 0 -105.5 -34.5t-55.5 -96.5z" />
    <glyph glyph-name="afii10195" unicode="&#x473;" 
d="M43 277q0 65 25.5 118.5t68 91.5t99 58.5t118.5 20.5t118.5 -20.5t99 -58.5t68 -91.5t25.5 -118.5t-25.5 -118t-68 -91t-99 -58.5t-118.5 -20.5t-118.5 20.5t-99 58.5t-68 91t-25.5 118zM199 210q20 -45 61 -70.5t94 -25.5q59 0 103 32.5t57 91.5q-18 -15 -43.5 -22
t-48.5 -7q-21 0 -35 5t-25 10.5t-23 10.5t-28 5q-39 0 -67 -7t-45 -23zM193 310q42 46 122 46q23 0 38 -4.5t27 -9.5t24.5 -9.5t31.5 -4.5q20 0 40.5 5t28.5 14q-20 45 -60 69.5t-91 24.5q-61 0 -105.5 -34.5t-55.5 -96.5z" />
    <glyph glyph-name="afii10846" unicode="&#x4d9;" horiz-adv-x="669" 
d="M481 342q-14 46 -50.5 72.5t-107.5 26.5q-42 0 -85.5 -15.5t-71.5 -38.5l-81 88q19 22 46 39t58 28.5t65.5 17.5t68.5 6q67 0 124.5 -19.5t99.5 -56.5t65.5 -91t23.5 -123q0 -71 -24.5 -125t-65.5 -91t-95.5 -55.5t-115.5 -18.5q-62 0 -117 19t-96 56t-65 91t-24 123v67
h448zM185 222q11 -55 47.5 -83t102.5 -28t103.5 30.5t45.5 80.5h-299z" />
    <glyph glyph-name="uni04D8" unicode="&#x4d8;" horiz-adv-x="669" 
d="M481 342q-14 46 -50.5 72.5t-107.5 26.5q-42 0 -85.5 -15.5t-71.5 -38.5l-81 88q19 22 46 39t58 28.5t65.5 17.5t68.5 6q67 0 124.5 -19.5t99.5 -56.5t65.5 -91t23.5 -123q0 -71 -24.5 -125t-65.5 -91t-95.5 -55.5t-115.5 -18.5q-62 0 -117 19t-96 56t-65 91t-24 123v67
h448zM185 222q11 -55 47.5 -83t102.5 -28t103.5 30.5t45.5 80.5h-299z" />
    <glyph glyph-name="uni0025" unicode="%" horiz-adv-x="830" 
d="M611 520l-318 -552l-100 46l318 552zM635 -16q-35 0 -64 12t-50 33.5t-32.5 50.5t-11.5 64q0 34 11.5 63.5t32.5 51t50 34t64 12.5q34 0 62.5 -12.5t49 -34t32 -51t11.5 -63.5q0 -35 -11.5 -64t-32 -50.5t-49 -33.5t-62.5 -12zM635 85q10 0 20 2.5t18 9.5t13 18.5t5 28.5
t-5 28t-13 18t-18 9.5t-20 2.5q-9 0 -19.5 -2.5t-19 -9.5t-14 -18t-5.5 -28t5.5 -28.5t14 -18.5t19 -9.5t19.5 -2.5zM187 237q-35 0 -64 12.5t-49.5 34t-32 51t-11.5 63.5t11.5 63.5t32 51.5t49.5 34t64 12q34 0 62.5 -12t49.5 -34t32.5 -51.5t11.5 -63.5t-11.5 -63.5
t-32.5 -51t-49.5 -34t-62.5 -12.5zM187 340q9 0 19.5 2.5t18.5 9t13.5 18t5.5 28.5q0 34 -19 46.5t-38 12.5q-10 0 -20.5 -3t-18.5 -9.5t-13.5 -18t-5.5 -28.5t5.5 -28.5t13.5 -18t18.5 -9t20.5 -2.5z" />
    <glyph glyph-name="multiply" unicode="&#xd7;" horiz-adv-x="432" 
d="M221 378l86 86l89 -88l-86 -86l84 -84l-86 -85l-83 83l-83 -82l-88 89l83 81l-84 84l84 85z" />
    <glyph glyph-name="divide" unicode="&#xf7;" horiz-adv-x="369" 
d="M187 529q35 0 58 -24t23 -57q0 -34 -23 -58.5t-58 -24.5q-34 0 -58 24.5t-24 58.5q0 33 24 57t58 24zM187 198q35 0 58 -23.5t23 -56.5q0 -34 -23 -56.5t-58 -22.5q-34 0 -58 21.5t-24 56.5q0 33 24 57t58 24zM341 332v-114h-314v114h314z" />
    <glyph glyph-name="uni0200" unicode="&#x200;" horiz-adv-x="743" 
d="M273 209h195l-84 213h-23zM481 553l235 -553h-156l-35 81h-306l-34 -81h-158l240 553h214zM512 625l-125 -32l-46 178l121 31zM343 625l-125 -32l-43 178l122 31z" />
    <glyph glyph-name="uni0202" unicode="&#x202;" horiz-adv-x="743" 
d="M273 209h195l-84 213h-23zM481 553l235 -553h-156l-35 81h-306l-34 -81h-158l240 553h214zM371 628l-92 -58l-57 75l149 110l150 -110l-60 -75z" />
    <glyph glyph-name="uni0204" unicode="&#x204;" horiz-adv-x="610" 
d="M556 553v-133h-362v-73h325v-133h-325v-78h375v-136h-522v553h509zM463 625l-125 -32l-46 178l121 31zM294 625l-125 -32l-43 178l122 31z" />
    <glyph glyph-name="uni0206" unicode="&#x206;" horiz-adv-x="610" 
d="M556 553v-133h-362v-73h325v-133h-325v-78h375v-136h-522v553h509zM304 641l-92 -58l-57 75l149 110l150 -110l-60 -75z" />
    <glyph glyph-name="uni0208" unicode="&#x208;" horiz-adv-x="241" 
d="M194 553v-553h-147v553h147zM283 625l-125 -32l-46 178l121 31zM114 625l-125 -32l-43 178l122 31z" />
    <glyph glyph-name="uni020A" unicode="&#x20a;" horiz-adv-x="241" 
d="M194 553v-553h-147v553h147zM123 653l-92 -58l-57 75l149 110l150 -110l-60 -75z" />
    <glyph glyph-name="uni020C" unicode="&#x20c;" 
d="M190 276q0 -38 12.5 -68.5t35 -52t52 -33t64.5 -11.5q34 0 64 11.5t52 33t34.5 52t12.5 68.5t-12.5 68.5t-34.5 52t-52 33t-64 11.5q-35 0 -64.5 -11.5t-52 -33t-35 -52t-12.5 -68.5zM665 276q0 -65 -25.5 -118.5t-68 -91.5t-99 -59t-118.5 -21t-118.5 21t-99 59
t-68 91.5t-25.5 118.5t25.5 118.5t68 91.5t99 59t118.5 21t118.5 -21t99 -59t68 -91.5t25.5 -118.5zM483 625l-125 -32l-46 178l121 31zM314 625l-125 -32l-43 178l122 31z" />
    <glyph glyph-name="uni020E" unicode="&#x20e;" 
d="M190 276q0 -38 12.5 -68.5t35 -52t52 -33t64.5 -11.5q34 0 64 11.5t52 33t34.5 52t12.5 68.5t-12.5 68.5t-34.5 52t-52 33t-64 11.5q-35 0 -64.5 -11.5t-52 -33t-35 -52t-12.5 -68.5zM665 276q0 -65 -25.5 -118.5t-68 -91.5t-99 -59t-118.5 -21t-118.5 21t-99 59
t-68 91.5t-25.5 118.5t25.5 118.5t68 91.5t99 59t118.5 21t118.5 -21t99 -59t68 -91.5t25.5 -118.5zM353 653l-92 -58l-57 75l149 110l150 -110l-60 -75z" />
    <glyph glyph-name="uni0210" unicode="&#x210;" horiz-adv-x="633" 
d="M374 553q50 0 92.5 -16t73 -45t48 -69.5t17.5 -89.5q0 -62 -26.5 -108t-73.5 -74l84 -151h-160l-63 118h-172v-118h-147v553h327zM194 252h174q39 0 64 20t25 61q0 40 -25 63t-64 23h-174v-167zM453 625l-125 -32l-46 178l121 31zM284 625l-125 -32l-43 178l122 31z" />
    <glyph glyph-name="uni0212" unicode="&#x212;" horiz-adv-x="633" 
d="M374 553q50 0 92.5 -16t73 -45t48 -69.5t17.5 -89.5q0 -62 -26.5 -108t-73.5 -74l84 -151h-160l-63 118h-172v-118h-147v553h327zM194 252h174q39 0 64 20t25 61q0 40 -25 63t-64 23h-174v-167zM307 653l-92 -58l-57 75l149 110l150 -110l-60 -75z" />
    <glyph glyph-name="uni0214" unicode="&#x214;" horiz-adv-x="653" 
d="M189 553v-283q0 -74 33 -114.5t105 -40.5q71 0 104 40.5t33 114.5v283h148v-282q0 -69 -20 -122t-57 -89t-90 -55t-118 -19t-118 19t-90 55t-57 89t-20 122v282h147zM479 625l-125 -32l-46 178l121 31zM310 625l-125 -32l-43 178l122 31z" />
    <glyph glyph-name="uni0216" unicode="&#x216;" horiz-adv-x="653" 
d="M189 553v-283q0 -74 33 -114.5t105 -40.5q71 0 104 40.5t33 114.5v283h148v-282q0 -69 -20 -122t-57 -89t-90 -55t-118 -19t-118 19t-90 55t-57 89t-20 122v282h147zM327 653l-92 -58l-57 75l149 110l150 -110l-60 -75z" />
    <glyph glyph-name="uni0201" unicode="&#x201;" horiz-adv-x="743" 
d="M273 209h195l-84 213h-23zM481 553l235 -553h-156l-35 81h-306l-34 -81h-158l240 553h214zM513 625l-125 -32l-46 178l121 31zM344 625l-125 -32l-43 178l122 31z" />
    <glyph glyph-name="uni0203" unicode="&#x203;" horiz-adv-x="743" 
d="M273 209h195l-84 213h-23zM481 553l235 -553h-156l-35 81h-306l-34 -81h-158l240 553h214zM370 653l-92 -58l-57 75l149 110l150 -110l-60 -75z" />
    <glyph glyph-name="uni0205" unicode="&#x205;" horiz-adv-x="610" 
d="M556 553v-133h-362v-73h325v-133h-325v-78h375v-136h-522v553h509zM455 625l-125 -32l-46 178l121 31zM286 625l-125 -32l-43 178l122 31z" />
    <glyph glyph-name="uni0207" unicode="&#x207;" horiz-adv-x="610" 
d="M556 553v-133h-362v-73h325v-133h-325v-78h375v-136h-522v553h509zM304 641l-92 -58l-57 75l149 110l150 -110l-60 -75z" />
    <glyph glyph-name="uni0209" unicode="&#x209;" horiz-adv-x="241" 
d="M194 553v-553h-147v553h147zM276 625l-125 -32l-46 178l121 31zM107 625l-125 -32l-43 178l122 31z" />
    <glyph glyph-name="uni020B" unicode="&#x20b;" horiz-adv-x="241" 
d="M194 553v-553h-147v553h147zM122 652l-92 -58l-57 75l149 110l150 -110l-60 -75z" />
    <glyph glyph-name="uni020D" unicode="&#x20d;" 
d="M190 276q0 -38 12.5 -68.5t35 -52t52 -33t64.5 -11.5q34 0 64 11.5t52 33t34.5 52t12.5 68.5t-12.5 68.5t-34.5 52t-52 33t-64 11.5q-35 0 -64.5 -11.5t-52 -33t-35 -52t-12.5 -68.5zM665 276q0 -65 -25.5 -118.5t-68 -91.5t-99 -59t-118.5 -21t-118.5 21t-99 59
t-68 91.5t-25.5 118.5t25.5 118.5t68 91.5t99 59t118.5 21t118.5 -21t99 -59t68 -91.5t25.5 -118.5zM493 625l-125 -32l-46 178l121 31zM324 625l-125 -32l-43 178l122 31z" />
    <glyph glyph-name="uni020F" unicode="&#x20f;" 
d="M190 276q0 -38 12.5 -68.5t35 -52t52 -33t64.5 -11.5q34 0 64 11.5t52 33t34.5 52t12.5 68.5t-12.5 68.5t-34.5 52t-52 33t-64 11.5q-35 0 -64.5 -11.5t-52 -33t-35 -52t-12.5 -68.5zM665 276q0 -65 -25.5 -118.5t-68 -91.5t-99 -59t-118.5 -21t-118.5 21t-99 59
t-68 91.5t-25.5 118.5t25.5 118.5t68 91.5t99 59t118.5 21t118.5 -21t99 -59t68 -91.5t25.5 -118.5zM353 653l-92 -58l-57 75l149 110l150 -110l-60 -75z" />
    <glyph glyph-name="uni0211" unicode="&#x211;" horiz-adv-x="633" 
d="M374 553q50 0 92.5 -16t73 -45t48 -69.5t17.5 -89.5q0 -62 -26.5 -108t-73.5 -74l84 -151h-160l-63 118h-172v-118h-147v553h327zM194 252h174q39 0 64 20t25 61q0 40 -25 63t-64 23h-174v-167zM440 625l-125 -32l-46 178l121 31zM271 625l-125 -32l-43 178l122 31z" />
    <glyph glyph-name="uni0213" unicode="&#x213;" horiz-adv-x="633" 
d="M374 553q50 0 92.5 -16t73 -45t48 -69.5t17.5 -89.5q0 -62 -26.5 -108t-73.5 -74l84 -151h-160l-63 118h-172v-118h-147v553h327zM194 252h174q39 0 64 20t25 61q0 40 -25 63t-64 23h-174v-167zM296 653l-92 -58l-57 75l149 110l150 -110l-60 -75z" />
    <glyph glyph-name="uni0215" unicode="&#x215;" horiz-adv-x="653" 
d="M189 553v-283q0 -74 33 -114.5t105 -40.5q71 0 104 40.5t33 114.5v283h148v-282q0 -69 -20 -122t-57 -89t-90 -55t-118 -19t-118 19t-90 55t-57 89t-20 122v282h147zM478 625l-125 -32l-46 178l121 31zM309 625l-125 -32l-43 178l122 31z" />
    <glyph glyph-name="uni0217" unicode="&#x217;" horiz-adv-x="653" 
d="M189 553v-283q0 -74 33 -114.5t105 -40.5q71 0 104 40.5t33 114.5v283h148v-282q0 -69 -20 -122t-57 -89t-90 -55t-118 -19t-118 19t-90 55t-57 89t-20 122v282h147zM327 653l-92 -58l-57 75l149 110l150 -110l-60 -75z" />
    <glyph glyph-name="uni021A" unicode="&#x21a;" horiz-adv-x="638" 
d="M608 553v-132h-215v-421h-148v421h-215v132h578zM322 -31q36 0 56 -25t20 -58q0 -5 -1 -13.5t-3 -16.5l-51 -133l-81 17l14 76q-18 11 -28 31t-10 40q0 16 6.5 31t18 26t27 18t32.5 7z" />
    <glyph glyph-name="uni021B" unicode="&#x21b;" horiz-adv-x="638" 
d="M608 553v-132h-215v-421h-148v421h-215v132h578zM322 -31q36 0 56 -25t20 -58q0 -5 -1 -13.5t-3 -16.5l-51 -133l-81 17l14 76q-18 11 -28 31t-10 40q0 16 6.5 31t18 26t27 18t32.5 7z" />
    <glyph glyph-name="uni0400" unicode="&#x400;" horiz-adv-x="610" 
d="M556 553v-133h-362v-73h325v-133h-325v-78h375v-136h-522v553h509zM393 625l-124 -32l-45 178l121 31z" />
    <glyph glyph-name="afii10055" unicode="&#x406;" horiz-adv-x="241" 
d="M194 553v-553h-147v553h147z" />
    <glyph glyph-name="uni040D" unicode="&#x40d;" horiz-adv-x="671" 
d="M193 553v-351l291 351h140v-553h-146v349l-290 -349h-141v553h146zM402 625l-124 -32l-45 178l121 31z" />
    <glyph glyph-name="uni0450" unicode="&#x450;" horiz-adv-x="610" 
d="M556 553v-133h-362v-73h325v-133h-325v-78h375v-136h-522v553h509zM393 625l-124 -32l-45 178l121 31z" />
    <glyph glyph-name="uni045D" unicode="&#x45d;" horiz-adv-x="668" 
d="M394 625l-125 -32l-45 178l122 31zM180 553v-351l290 351h141v-553h-146v349l-290 -349h-142v553h147z" />
    <glyph glyph-name="minus" unicode="&#x2212;" horiz-adv-x="395" 
d="M355 346v-129h-315v129h315z" />
    <glyph glyph-name="exclamdown" unicode="&#xa1;" horiz-adv-x="263" 
d="M199.004 -78.9609h-137.992v419.974h137.992v-419.974zM129.008 378.011q-18.999 0 -35.998 7.49902q-16.998 7.5 -29.998 20.499q-12.999 12.999 -20.498 29.998q-7.5 16.999 -7.5 35.998q0 41.9971 27.998 68.9961q27.999 26.998 65.9961 26.998
q41.998 0 68.9961 -26.998q26.998 -26.999 26.998 -68.9961q0 -37.998 -26.998 -65.9961t-68.9961 -27.998z" />
    <glyph glyph-name="questiondown" unicode="&#xbf;" horiz-adv-x="575" 
d="M288.017 374.011q-40.9971 0 -68.9951 27.498q-27.999 27.499 -27.999 68.4961q0 40.998 27.999 65.4961q27.998 24.499 68.9951 24.499q38.998 0 67.9961 -24.499q28.998 -24.498 28.998 -65.4961q0 -19.999 -7.99902 -37.4971q-8 -17.499 -20.999 -30.499
q-12.999 -12.999 -30.498 -20.498q-17.499 -7.5 -37.498 -7.5zM362.013 280.017q0 -35.998 -20.499 -68.9961t-70.4961 -48.9971l-35.998 -10.999q-10.999 -4 -22.498 -8.99902q-11.499 -5 -20.999 -11q-9.49902 -5.99902 -15.499 -14.499
q-5.99902 -8.49902 -5.99902 -19.499q0 -31.998 27.498 -42.9971t83.4951 -10.999q65.9961 0 112.493 17.999t90.4941 58.9961l69.9961 -97.9941q-54.9971 -56.9961 -124.493 -82.9951q-69.4951 -25.998 -147.49 -25.998q-56.9971 0 -104.994 9.99902
q-47.9971 10 -83.4951 32.498q-35.4971 22.499 -55.4961 58.9971q-19.999 36.4971 -19.999 90.4941q0 30.998 11.999 55.9961q12 24.999 32.498 45.498q20.499 20.498 47.4971 35.4971q26.999 14.999 55.9971 24.999l27.998 10.999q8 3 13.999 13.999q6 11 6 21.999v19.999
h147.991v-53.9971z" />
    </font>
</defs>
</svg>
